时代影视论坛(NowYS)

 找回密码
 立即注册
搜索
查看: 1384|回复: 29

星际迷航3:超越星辰.Star.Trek.Beyond.2016.2160p.4K.UltraHD.BluRay.x265.(HEVC.10bit.BT709).Dolby.Atmos.7.1-DDR 55.76GB

[复制链接]
  • TA的每日心情
    奋斗
    2018-5-10 10:42
  • 签到天数: 247 天

    [LV.8]以坛为家I

    发表于 2017-3-17 12:36:32 | 显示全部楼层 |阅读模式
    台湾UU

    马上注册,结交更多好友,享用更多功能,让你轻松玩转社区。

    您需要 登录 才可以下载或查看,没有帐号?立即注册

    x
    p2391375418.jpg
    ◎译  名 星际迷航3:超越星辰/星际迷航13:超越/星际旅行13:超越太空/星空奇遇记13:超域时空(港)/星际争霸战13:浩瀚无垠(台)/星舰奇航记13/星舰迷航记13
    ◎片  名 Star Trek Beyond
    ◎年  代 2016
    ◎国  家 美国
    ◎类  别 动作/科幻/冒险
    ◎语  言 英语
    ◎上映日期 2016-07-22(美国)/2016-09-02(中国大陆)
    ◎IMDb评分  7.1/10 from 155,028 users
    ◎IMDb链接  http://www.imdb.com/title/tt2660888/
    ◎豆瓣评分 7.3/10 from 83,612 users
    ◎豆瓣链接 https://movie.douban.com/subject/22939161/
    ◎时代影视整理 http://www.sdy4.net
    ◎片  长 122分钟(中国大陆/美国)
    ◎导  演 林诣彬 Justin Lin
    ◎主  演 克里斯·派恩 Chris Pine
          扎克瑞·昆图 Zachary Quinto
          佐伊·索尔达娜 Zoe Saldana
          西蒙·佩吉 Simon Pegg
          安东·叶利钦 Anton Yelchin
          伊德里斯·艾尔巴 Idris Elba
          索菲亚·波多拉 Sofia Boutella
          卡尔·厄本 Karl Urban
          索瑞·安达斯鲁 Shohreh Aghdashloo
          约翰·赵 John Cho
          迪普·罗伊 Deep Roy
          莉迪亚·威尔逊 Lydia Wilson
          乔·塔斯利姆 Joe Taslim
          约瑟夫·盖特 Joseph Gatt
          卡洛·安切洛蒂 Carlo Ancelotti
          亚当·迪马克 Adam DiMarco
          梅丽莎·罗斯伯格 Melissa Roxburgh
          阿什丽·艾德纳 Ashley Edner
          贾森·马修·史密斯 Jason Matthew Smith

    ◎简  介

      柯克船长(克里斯·派恩 Chris Pine 饰)和企业号的船员们来到了银河系中未知的一个区域,开始完成他们5年的任务——探索新世界,寻找新物种。却在途中滞留异星,遭遇了当地种族追杀,他们必须找到方法离开这个星球。

    ◎获奖情况

      第89届奥斯卡金像奖  (2017)
      最佳化妆与发型设计(提名) Joel Harlow / 理查德·阿朗索

      第15届美国视觉效果协会奖  (2017)
      最佳电影模型(提名)

      第22届美国评论家选择电影奖  (2016)
      最佳化妆(提名)
      最佳科幻/恐怖片(提名)
    2160p UHD 4K Blu-Ray Rip
    HEVC 10 Bits BT709

    English Dolby ATMOS 7.1 Audio
    SPECS

    Note:
    Audio + Subs + Chapter files are from BD50 HD Blu-Ray synced and mixed to UHD-4K Video from ZEUS.

    High End CPU + GPU is required to play very high bitrate 4K.
    Fully tested with :
    - PC with PotPlayer V 1.6 / Xeon Broadwell CPU / NVidia GTX1080
    - Nvidia Shield streaming through PLEX on Samsung TV

    Format : Matroska
    File size : 55.3 GiB
    Duration : 2 h 2 min
    Overall bit rate mode : Variable
    Overall bit rate : 64.6 Mb/s

    Video
    Format : HEVC
    Format/Info : High Efficiency Video Coding
    Format profile : Main 10@L6.1@Main
    Codec ID : V_MPEGH/ISO/HEVC
    Duration : 2 h 2 min
    Bit rate : 59.6 Mb/s
    Width : 3 840 pixels
    Height : 2 160 pixels
    Display aspect ratio : 16:9
    Frame rate mode : Constant
    Frame rate : 23.976 (24000/1001) FPS
    Color space : YUV
    Chroma subsampling : 4:2:0
    Bit depth : 10 bits
    Bits/(Pixel*Frame) : 0.300
    Stream size : 50.9 GiB (92%)
    Language : English
    Default : Yes
    Forced : No
    Color range : Limited
    Color primaries : BT.709
    Transfer characteristics : BT.709
    Matrix coefficients : BT.601

    Audio #1
    Format : Atmos / TrueHD
    Codec ID : A_TRUEHD
    Duration : 2 h 2 min
    Bit rate mode : Variable
    Bit rate : 4 367 kb/s
    Maximum bit rate : 7 641 kb/s
    Channel(s) : Object Based / 8 channels
    Channel positions : Object Based / Front: L C R, Side: L R, Back: L R, LFE
    Sampling rate : / 48.0 kHz
    Frame rate : 1 200.000 FPS (40 spf)
    Compression mode : Lossless
    Delay relative to video : 2 s 50 ms
    Stream size : 3.73 GiB (7%)
    Language : English
    Default : No
    Forced : No

    Chapters : YES

    SCREENSHOTS




    游客,如果您要查看本帖隐藏内容请回复
    回复

    使用道具 举报

  • TA的每日心情
    无聊
    2017-6-22 06:48
  • 签到天数: 78 天

    [LV.6]常住居民II

    发表于 2017-3-18 11:39:46 | 显示全部楼层
    很好看的片子,谢谢!
    回复 支持 反对

    使用道具 举报

  • TA的每日心情
    奋斗
    2018-2-1 00:14
  • 签到天数: 291 天

    [LV.8]以坛为家I

    发表于 2017-3-21 23:00:30 | 显示全部楼层
    感谢楼主分享精彩电影!
    回复 支持 反对

    使用道具 举报

  • TA的每日心情
    奋斗
    2018-1-17 20:12
  • 签到天数: 137 天

    [LV.7]常住居民III

    发表于 2017-3-21 23:26:11 | 显示全部楼层
    国语就好,,,
    回复

    使用道具 举报

  • TA的每日心情
    开心
    2017-4-16 13:32
  • 签到天数: 9 天

    [LV.3]偶尔看看II

    发表于 2017-4-1 23:15:21 | 显示全部楼层
    太多好东西了 谢谢
    回复 支持 反对

    使用道具 举报

  • TA的每日心情
    擦汗
    2017-7-21 22:41
  • 签到天数: 31 天

    [LV.5]常住居民I

    发表于 2017-4-7 22:36:12 | 显示全部楼层
    VVVVVVVVVVVVVVVVVVVVVVVVVVV
    回复 支持 反对

    使用道具 举报

  • TA的每日心情
    开心
    2017-5-12 17:47
  • 签到天数: 2 天

    [LV.1]初来乍到

    发表于 2017-4-13 04:11:57 | 显示全部楼层
    超越星辰.Star.Trek.Beyond.2016.2160p.4K.UltraHD.BluRay.x265.(HEVC.10bit.BT709).Dolby.Atmos.7.1-DDR 55.76G
    回复 支持 反对

    使用道具 举报

  • TA的每日心情
    开心
    2017-5-19 22:45
  • 签到天数: 24 天

    [LV.4]偶尔看看III

    发表于 2017-4-14 19:09:06 | 显示全部楼层
    谢谢分享4K影片
    回复 支持 反对

    使用道具 举报

  • TA的每日心情
    开心
    2017-4-26 19:36
  • 签到天数: 1 天

    [LV.1]初来乍到

    发表于 2017-4-26 20:12:45 | 显示全部楼层
    谢谢楼主分享
    回复 支持 反对

    使用道具 举报

  • TA的每日心情
    开心
    2017-10-28 10:14
  • 签到天数: 63 天

    [LV.6]常住居民II

    发表于 2017-5-17 22:15:02 | 显示全部楼层
    很好看的片子,谢谢!
    回复 支持 反对

    使用道具 举报

    您需要登录后才可以回帖 登录 | 立即注册

    本版积分规则

    Archiver|手机版|小黑屋|时代影视论坛(NowYS小组) ( 宁ICP备16002180号-4 )

    GMT+8, 2018-5-21 18:43 , Processed in 1.202894 second(s), 33 queries , Gzip On.

    Powered by 时代影视 X3.2

    © 2001-2013 Comsenz Inc.

    快速回复 返回顶部 返回列表