时代影视论坛(NowYS)

 找回密码
 立即注册
搜索
查看: 1272|回复: 2

[BT下载]二对一 All.At.Once.2016.1080p.BluRay.x264.DTS-HD.MA.2.0-MT 7.95GB

[复制链接]

该用户从未签到

发表于 2018-4-15 01:02:11 | 显示全部楼层 |阅读模式
台湾UU

马上注册,结交更多好友,享用更多功能,让你轻松玩转社区。

您需要 登录 才可以下载或查看,没有帐号?立即注册

x
[2016] [欧美] [剧情] [BD-1080P][BT下载]二对一 All.At.Once.2016.1080p.BluRay.x264.DTS-HD.MA.2.0-MT 7.95GB



-->

All.At.Once.2016.1080p.BluRay.x264.DTS-HD.MA.2.0-MT

All.At.Once.2016.1080p.BluRay.x264.DTS-HD.MA.2.0-MT

◎译  名 二对一
◎片  名 Two for One
◎年  代 2016
◎产  地 美国
◎类  别 剧情
◎语  言 英语
◎IMDb评分  7.9/10 from 26 users
◎IMDb链接  http://www.imdb.com/title/tt5073756/
◎BT之家整理 http://www.btbtt.co
◎导  演 乔·阿布拉汉姆斯 Jon Abrahams
◎主  演 埃丽卡·克里斯滕森 Erika Christensen
      安妮·波茨 Annie Potts
      斯科特·凯恩 Scott Caan
      莎莫·菲尼克斯 Summer Phoenix


◎简  介


  A young up and coming artist in New York city has his life and dreams forever altered when the tragic events of 9/11 take the lives of his two best friends and heaccepts guardianship of the couple's two young daughters. Now eleven years later| and teaching art at an elementary school| he raises the girls as if they were hisown| but the financial grind to live in NYC is too much| so he decides to take the girls away from the only place they've ever called home and move back to Buffalowhere he grew up. This "non-traditional" family now faced with change| new surroundings| and a new journey| must learn how to adjust to this new life| while tryingto find themselves along the way.


Video
ID                                       : 1
Format                                   : AVC
Format/Info                              : Advanced Video Codec
Format profile                           : High@L4.1
Format settings                          : CABAC / 5 Ref Frames
Format settings, CABAC                   : Yes
Format settings, ReFrames                : 5 frames
Codec ID                                 : V_MPEG4/ISO/AVC
Duration                                 : 1 h 52 min
Bit rate                                 : 8 020 kb/s
Width                                    : 1 920 pixels
Height                                   : 804 pixels
Display aspect ratio                     : 2.40:1
Frame rate mode                          : Constant
Frame rate                               : 23.976 (24000/1001) FPS
Color space                              : YUV
Chroma subsampling                       : 4:2:0
Bit depth                                : 8 bits
Scan type                                : Progressive
Bits/(Pixel*Frame)                       : 0.217
Stream size                              : 6.27 GiB (79%)
Writing library                          : x264 core 155 r2901 7d0ff22
Encoding settings                        : cabac=1 / ref=5 / deblock=1:-3:-3 / analyse=0x3:0x113 / me=umh / subme=10 / psy=1 / psy_rd=1.05:0.10 / mixed_ref=1 / me_range=48 / chroma_me=1 / trellis=2 / 8x8dct=1 / cqm=0 / deadzone=21,11 / fast_pskip=0 / chroma_qp_offset=-2 / threads=12 / lookahead_threads=1 / sliced_threads=0 / nr=0 / decimate=1 / interlaced=0 / bluray_compat=0 / constrained_intra=0 / bframes=6 / b_pyramid=2 / b_adapt=2 / b_bias=0 / direct=3 / weightb=1 / open_gop=0 / weightp=2 / keyint=250 / keyint_min=23 / scenecut=40 / intra_refresh=0 / rc=2pass / mbtree=0 / bitrate=8020 / ratetol=2.0 / qcomp=0.70 / qpmin=0 / qpmax=69 / qpstep=4 / cplxblur=20.0 / qblur=0.5 / ip_ratio=1.40 / pb_ratio=1.30 / aq=3:1.00
Default                                  : Yes
Forced                                   : No

Audio
ID                                       : 2
Format                                   : DTS
Format/Info                              : Digital Theater Systems
Format profile                           : MA / Core
Codec ID                                 : A_DTS
Duration                                 : 1 h 52 min
Bit rate mode                            : Variable / Constant
Bit rate                                 : 2 048 kb/s / 1 509 kb/s
Channel(s)                               : 2 channels
Channel positions                        : Front: L R
Sampling rate                            : 48.0 kHz
Frame rate                               : 93.750 FPS (512 SPF)
Bit depth                                : 24 bits
Compression mode                         : Lossless / Lossy
Stream size                              : 1.62 GiB (20%)
Language                                 : English
Default                                  : Yes
Forced                                   : No

Text
ID                                       : 3
Format                                   : PGS
Muxing mode                              : zlib
Codec ID                                 : S_HDMV/PGS
Codec ID/Info                            : Picture based subtitle format used on BDs/HD-DVDs
Duration                                 : 1 h 51 min
Bit rate                                 : 101 kb/s
Count of elements                        : 4040
Stream size                              : 80.7 MiB (1%)
Language                                 : English
Default                                  : Yes
Forced                                   : No

Menu
00:00:00.000                             : en:00:00:00.000
00:10:12.195                             : en:00:10:12.195
00:20:45.578                             : en:00:20:45.578
00:32:06.091                             : en:00:32:06.091
00:41:48.756                             : en:00:41:48.756
00:54:20.215                             : en:00:54:20.215
01:06:48.129                             : en:01:06:48.129
01:20:39.960                             : en:01:20:39.960
01:37:00.148                             : en:01:37:00.148



6e0c046c6b07f4617f59e3f49ae2d375.jpg
0653235267c1ffef1becd4bd2744d23b.jpg




9ebc8b9a028b3341e0d0d47796617441.torrent (80.03 KB, 下载次数: 5)
回复

使用道具 举报

  • TA的每日心情
    开心
    8 小时前
  • 签到天数: 110 天

    [LV.6]常住居民II

    发表于 2018-4-15 14:57:05 | 显示全部楼层
    楼主分享的高清电影太好了!
    回复 支持 反对

    使用道具 举报

  • TA的每日心情
    开心
    昨天 00:07
  • 签到天数: 35 天

    [LV.5]常住居民I

    发表于 2018-4-15 23:45:18 | 显示全部楼层
    楼主,我太崇拜你了!:lol:lol
    回复 支持 反对

    使用道具 举报

    您需要登录后才可以回帖 登录 | 立即注册

    本版积分规则

    Archiver|手机版|小黑屋|时代影视论坛(NowYS小组) ( 宁ICP备16002180号-4 )

    GMT+8, 2018-4-25 16:17 , Processed in 0.207465 second(s), 29 queries , Gzip On.

    Powered by 时代影视 X3.2

    © 2001-2013 Comsenz Inc.

    快速回复 返回顶部 返回列表