时代影视论坛(NowYS)

 找回密码
 立即注册
搜索
查看: 144|回复: 1

[1080p] The.Hurt.Business.2016.1080p.BluRay.x264.DTS-FGT 4.8GB

[复制链接]
  • TA的每日心情
    郁闷
    2 小时前
  • 签到天数: 141 天

    [LV.7]常住居民III

    发表于 2017-1-26 02:09:27 | 显示全部楼层 |阅读模式
    台湾UU


    ◎译  名 
    ◎片  名 The Hurt Business
    ◎年  代 2016
    ◎国  家 美国
    ◎类  别 纪录片/运动
    ◎语  言 英语
    ◎IMDb评分  6.4/10 from 140 users
    ◎IMDb链接  http://www.imdb.com/title/tt3993350/
    ◎时代影视整理 http://www.sdy4.net
    ◎片  长 107分钟(美国)
    ◎导  演 Vlad Yudin
    ◎主  演 凯文·科斯特纳 Kevin Costner
          巴斯鲁藤 Bas Rutten
          乔治·圣皮埃尔 Georges St-Pierre
          查克·林德尔 Chuck Liddell
          Tito Ortiz
          Kenny Florian
          Bruce Buffer

    ◎简  介

      From the producers of 'Bowling for Columbine', 'Fahrenheit 9/11' and 'Generation Iron' comes 'The Hurt Business' which examines the rise of mixed martial arts fighting through the eyes of today's top stars.


    Video
    ID                                       : 1
    Format                                   : AVC
    Format/Info                              : Advanced Video Codec
    Format profile                           : High@L4.1
    Format settings, CABAC                   : Yes
    Format settings, ReFrames                : 4 frames
    Codec ID                                 : V_MPEG4/ISO/AVC
    Duration                                 : 1h 46mn
    Bit rate                                 : 5 535 Kbps
    Width                                    : 1 920 pixels
    Height                                   : 1 080 pixels
    Display aspect ratio                     : 16:9
    Frame rate mode                          : Constant
    Frame rate                               : 23.976 (24000/1001) fps
    Color space                              : YUV
    Chroma subsampling                       : 4:2:0
    Bit depth                                : 8 bits
    Scan type                                : Progressive
    Bits/(Pixel*Frame)                       : 0.111
    Stream size                              : 4.13 GiB (86%)
    Writing library                          : x264 core 148 r2638 7599210
    Encoding settings                        : cabac=1 / ref=4 / deblock=1:0:0 / analyse=0x3:0x113 / me=umh / subme=7 / psy=1 / psy_rd=1.00:0.00 / mixed_ref=1 / me_range=16 / chroma_me=1 / trellis=1 / 8x8dct=1 / cqm=0 / deadzone=21,11 / fast_pskip=0 / chroma_qp_offset=-2 / threads=12 / lookahead_threads=2 / sliced_threads=0 / nr=0 / decimate=1 / interlaced=0 / bluray_compat=0 / constrained_intra=0 / bframes=3 / b_pyramid=2 / b_adapt=2 / b_bias=0 / direct=3 / weightb=1 / open_gop=0 / weightp=2 / keyint=240 / keyint_min=23 / scenecut=40 / intra_refresh=0 / rc_lookahead=50 / rc=crf / mbtree=1 / crf=20.0 / qcomp=0.60 / qpmin=0 / qpmax=69 / qpstep=4 / vbv_maxrate=62500 / vbv_bufsize=78125 / crf_max=0.0 / nal_hrd=none / filler=0 / ip_ratio=1.40 / aq=1:1.00
    Language                                 : English
    Default                                  : Yes
    Forced                                   : No
    Color range                              : Limited
    Matrix coefficients                      : BT.709

    Audio
    ID                                       : 2
    Format                                   : DTS
    Format/Info                              : Digital Theater Systems
    Mode                                     : 16
    Format settings, Endianness              : Big
    Codec ID                                 : A_DTS
    Duration                                 : 1h 46mn
    Bit rate mode                            : Constant
    Bit rate                                 : 768 Kbps
    Channel(s)                               : 6 channels
    Channel positions                        : Front: L C R, Side: L R, LFE
    Sampling rate                            : 48.0 KHz
    Frame rate                               : 93.750 fps (512 spf)
    Bit depth                                : 24 bits
    Compression mode                         : Lossy
    Stream size                              : 587 MiB (12%)
    Language                                 : English
    Default                                  : Yes
    Forced                                   : No

    Menu
    00:00:00.000                             : en:Chapter 01
    00:04:26.015                             : en:Chapter 02
    00:15:34.642                             : en:Chapter 03
    00:27:47.582                             : en:Chapter 04
    00:34:16.054                             : en:Chapter 05
    00:40:49.780                             : en:Chapter 06
    00:52:20.470                             : en:Chapter 07
    00:59:41.202                             : en:Chapter 08
    01:06:51.674                             : en:Chapter 09
    01:18:15.273                             : en:Chapter 10
    01:31:32.528                             : en:Chapter 11
    01:42:20.467                             : en:Chapter 12
    游客,如果您要查看本帖隐藏内容请回复

    本帖子中包含更多资源

    您需要 登录 才可以下载或查看,没有帐号?立即注册

    x
    回复

    使用道具 举报

  • TA的每日心情
    奋斗
    2017-3-24 09:28
  • 签到天数: 38 天

    [LV.5]常住居民I

    发表于 2017-3-1 12:55:41 | 显示全部楼层
    这啥,主演什么情况
    回复 支持 反对

    使用道具 举报

    您需要登录后才可以回帖 登录 | 立即注册

    本版积分规则

    Archiver|手机版|小黑屋|时代影视论坛(NowYS小组) ( 宁ICP备16002180号-4 )

    GMT+8, 2017-6-26 13:17 , Processed in 0.158830 second(s), 12 queries , Gzip On, Memcache On.

    Powered by 时代影视 X3.2

    © 2001-2013 Comsenz Inc.

    快速回复 返回顶部 返回列表