时代影视论坛(NowYS)

 找回密码
 立即注册
搜索
查看: 53|回复: 3

[WEBRip] 金门大桥 The.Bridge.2006.720p.WEBRip.DD2.0.x264-monkee 2.09GB

[复制链接]
 成长值: 615
  • TA的每日心情
    开心
    10 小时前
  • 签到天数: 74 天

    [LV.6]常住居民II

    发表于 2017-1-31 15:15:05 | 显示全部楼层 |阅读模式
    台湾UU


    ◎译  名 金门大桥
    ◎片  名 The Bridge
    ◎年  代 2006
    ◎国  家 英国/美国
    ◎类  别 纪录片
    ◎语  言 英语
    ◎上映日期 2007-02-16
    ◎IMDb评分  7.3/10 from 9,524 users
    ◎IMDb链接  http://www.imdb.com/title/tt0799954/
    ◎豆瓣评分 7.7/10 from 892 users
    ◎豆瓣链接 https://movie.douban.com/subject/1864494/
    ◎时代影视整理 http://www.sdy4.net
    ◎片  长 94 分钟
    ◎导  演 Eric Steel

    ◎简  介

      这是一部关于死亡的记录片。导演历时一年用摄影机记录下了来到金门大桥——全美最热门的自杀圣地——自杀的各色人等。有的人翻过围栏直接往下跳,有的人犹豫不决,被路人救下;有的人往下跳的一刻,忽然不想死了,奋力自救……这些自杀人群的家属们的反应也各个不一。通过这部影片,你会看到最接近死亡的一刻,看到金光闪闪的大桥下的芸芸众生。

    Video
    ID                                       : 1
    Format                                   : AVC
    Format/Info                              : Advanced Video Codec
    Format profile                           : [email protected]
    Format settings, CABAC                   : Yes
    Format settings, ReFrames                : 5 frames
    Codec ID                                 : V_MPEG4/ISO/AVC
    Duration                                 : 1h 34mn
    Bit rate mode                            : Variable
    Bit rate                                 : 2 946 Kbps
    Maximum bit rate                         : 4 500 Kbps
    Width                                    : 1 280 pixels
    Height                                   : 720 pixels
    Display aspect ratio                     : 16:9
    Frame rate mode                          : Constant
    Frame rate                               : 23.976 (24000/1001) fps
    Color space                              : YUV
    Chroma subsampling                       : 4:2:0
    Bit depth                                : 8 bits
    Scan type                                : Progressive
    Bits/(Pixel*Frame)                       : 0.133
    Stream size                              : 1.94 GiB (93%)
    Writing library                          : x264 core 148 r2623 d5b2374
    Encoding settings                        : cabac=1 / ref=5 / deblock=1:-1:-1 / analyse=0x3:0x133 / me=umh / subme=9 / psy=1 / psy_rd=1.00:0.15 / mixed_ref=1 / me_range=24 / chroma_me=1 / trellis=2 / 8x8dct=1 / cqm=0 / deadzone=21,11 / fast_pskip=1 / chroma_qp_offset=-3 / threads=22 / lookahead_threads=3 / sliced_threads=0 / nr=150 / decimate=1 / interlaced=0 / bluray_compat=0 / constrained_intra=0 / bframes=8 / b_pyramid=2 / b_adapt=2 / b_bias=0 / direct=3 / weightb=1 / open_gop=0 / weightp=2 / keyint=120 / keyint_min=61 / scenecut=0 / intra_refresh=0 / rc_lookahead=120 / rc=crf / mbtree=1 / crf=18.0 / qcomp=0.60 / qpmin=0 / qpmax=69 / qpstep=4 / vbv_maxrate=4500 / vbv_bufsize=17500 / crf_max=0.0 / nal_hrd=vbr / filler=0 / ip_ratio=1.40 / aq=3:1.00
    Default                                  : Yes
    Forced                                   : No
    Color range                              : Limited
    Color primaries                          : BT.709
    Transfer characteristics                 : BT.709
    Matrix coefficients                      : BT.709

    Audio
    ID                                       : 2
    Format                                   : E-AC-3
    Format/Info                              : Audio Coding 3
    Format settings, Endianness              : Big
    Codec ID                                 : A_EAC3
    Duration                                 : 1h 34mn
    Bit rate mode                            : Constant
    Bit rate                                 : 224 Kbps
    Channel(s)                               : 2 channels
    Channel positions                        : Front: L R
    Sampling rate                            : 48.0 KHz
    Frame rate                               : 187.500 fps (256 spf)
    Compression mode                         : Lossy
    Stream size                              : 151 MiB (7%)
    Language                                 : English
    Default                                  : Yes
    Forced                                   : No

    Text
    ID                                       : 3
    Format                                   : UTF-8
    Codec ID                                 : S_TEXT/UTF8
    Codec ID/Info                            : UTF-8 Plain Text
    Duration                                 : 1h 34mn
    Bit rate                                 : 78 bps
    Count of elements                        : 1673
    Stream size                              : 54.4 KiB (0%)
    Language                                 : English
    Default                                  : No
    Forced                                   : No

    游客,如果您要查看本帖隐藏内容请回复

    本帖子中包含更多资源

    您需要 登录 才可以下载或查看,没有帐号?立即注册

    x
    回复

    使用道具 举报

  • TA的每日心情
    开心
    8 小时前
  • 签到天数: 26 天

    [LV.4]偶尔看看III

    发表于 2017-2-5 14:20:37 | 显示全部楼层
    原来这部“金门大桥”纪录片是要探讨这么严肃的题材,值得观赏与思考,感谢分享!
    回复 支持 反对

    使用道具 举报

  • TA的每日心情
    奋斗
    前天 10:38
  • 签到天数: 10 天

    [LV.3]偶尔看看II

    发表于 2017-2-13 16:26:56 | 显示全部楼层
    通过这部影片,你会看到最接近死亡的一刻
    回复 支持 反对

    使用道具 举报

  • TA的每日心情
    无聊
    昨天 08:14
  • 签到天数: 2 天

    [LV.1]初来乍到

    发表于 昨天 08:34 | 显示全部楼层
    很有名的桥梁
    回复 支持 反对

    使用道具 举报

    您需要登录后才可以回帖 登录 | 立即注册

    本版积分规则

    Archiver|手机版|小黑屋|时代影视论坛(NowYS小组) ( 宁ICP备16002180号-4 )

    GMT+8, 2017-2-25 10:18 , Processed in 0.158317 second(s), 15 queries , Gzip On, Memcache On.

    Powered by 时代影视 X3.2

    © 2001-2013 Comsenz Inc.

    快速回复 返回顶部 返回列表