时代影视论坛(NowYS)

 找回密码
 立即注册
搜索
查看: 117|回复: 0

给我危险/一级危险 Gimme.Danger.2016.720p.HC.WEBRip.x264.AAC2.0-BD4YU 1.68GB

[复制链接]
  • TA的每日心情
    郁闷
    昨天 12:46
  • 签到天数: 186 天

    [LV.7]常住居民III

    发表于 2017-1-31 15:24:34 | 显示全部楼层 |阅读模式
    台湾UU


    ◎译  名 给我危险/一级危险(港)/飞蛾扑火/贪婪危机
    ◎片  名 Gimme Danger
    ◎年  代 2016
    ◎国  家 美国
    ◎类  别 纪录片
    ◎语  言 英语
    ◎上映日期 2016-10-28(美国)
    ◎IMDb评分  7.2/10 from 782 users
    ◎IMDb链接  http://www.imdb.com/title/tt1714917/
    ◎豆瓣评分 7.8/10 from 87 users
    ◎豆瓣链接 https://movie.douban.com/subject/5265470/
    ◎时代影视整理 http://www.sdy4.net
    ◎片  长 108分钟
    ◎导  演 吉姆·贾木许 Jim Jarmusch
    ◎主  演 伊基·波普 Iggy Pop

    ◎简  介

      傀儡乐队(The Stooges)起源于反文化运动时期的密歇根州安娜堡市,他们的摇滚乐强大又极具侵略性,如一枚炸弹般投向了20世纪60年代末的音乐界。他们用融合了摇滚、蓝调、R&B和自由爵士的音乐对观众狂轰乱炸,为接下来几十年中朋克和另类摇滚乐的出现埋下了“因”。吉姆·贾木许的新片《给我危险》记载了傀儡乐队——历史上最伟大的摇滚乐团之一的故事。《给我危险》呈现了傀儡乐队出现时的大环境,包括音乐、文化、政治、历史等方面。影片还讲述了他们所经历的冒险与不幸,记录了他们的灵感来源以及最初商业挑战背后的初衷,当然还有他们对后世产生的长远影响。

    Video
    ID                                       : 1
    Format                                   : AVC
    Format/Info                              : Advanced Video Codec
    Format profile                           : High@L3.1
    Format settings, CABAC                   : Yes
    Format settings, ReFrames                : 1 frame
    Format settings, GOP                     : M=1, N=12
    Codec ID                                 : avc1
    Codec ID/Info                            : Advanced Video Coding
    Duration                                 : 1h 47mn
    Bit rate                                 : 2 027 Kbps
    Width                                    : 1 280 pixels
    Height                                   : 720 pixels
    Display aspect ratio                     : 16:9
    Frame rate mode                          : Constant
    Frame rate                               : 24.000 fps
    Color space                              : YUV
    Chroma subsampling                       : 4:2:0
    Bit depth                                : 8 bits
    Scan type                                : Progressive
    Bits/(Pixel*Frame)                       : 0.092
    Stream size                              : 1.53 GiB (91%)
    Title                                    : Gimme.Danger.2016.720p.HC.WEBRip.x264.AAC2.0-BD4YU
    Color range                              : Limited

    Audio
    ID                                       : 2
    Format                                   : AAC
    Format/Info                              : Advanced Audio Codec
    Format profile                           : LC
    Codec ID                                 : 40
    Duration                                 : 1h 47mn
    Duration_LastFrame                       : 24ms
    Bit rate mode                            : Constant
    Bit rate                                 : 192 Kbps
    Channel(s)                               : 2 channels
    Channel positions                        : Front: L R
    Sampling rate                            : 48.0 KHz
    Frame rate                               : 46.875 fps (1024 spf)
    Compression mode                         : Lossy
    Stream size                              : 148 MiB (9%)
    Title                                    : Gimme.Danger.2016.720p.HC.WEBRip.x264.AAC2.0-BD4YU
    Default                                  : Yes
    Alternate group                          : 1

    游客,如果您要查看本帖隐藏内容请回复

    本帖子中包含更多资源

    您需要 登录 才可以下载或查看,没有帐号?立即注册

    x
    回复

    使用道具 举报

    您需要登录后才可以回帖 登录 | 立即注册

    本版积分规则

    Archiver|手机版|小黑屋|时代影视论坛(NowYS小组) ( 宁ICP备16002180号-4 )

    GMT+8, 2017-11-19 18:42 , Processed in 0.167344 second(s), 13 queries , Gzip On, Memcache On.

    Powered by 时代影视 X3.2

    © 2001-2013 Comsenz Inc.

    快速回复 返回顶部 返回列表