时代影视论坛(NowYS)

 找回密码
 立即注册
搜索
查看: 146|回复: 0

[WEBRip] 黑神锅传奇/黑神魔 The.Black.Cauldron.1985.1080p.WEBRip.DD5.1.x264-FGT 5GB

[复制链接]
  • TA的每日心情
    开心
    3 天前
  • 签到天数: 153 天

    [LV.7]常住居民III

    发表于 2017-2-2 20:17:58 | 显示全部楼层 |阅读模式
    台湾UU


    ◎译  名 黑神锅传奇/黑神魔
    ◎片  名 The Black Cauldron
    ◎年  代 1985
    ◎国  家 美国
    ◎类  别 动画/家庭/奇幻/冒险
    ◎语  言 英语
    ◎上映日期 1985-07-24(美国)/1986-10-19(中国大陆)
    ◎IMDb评分  6.5/10 from 23,044 users
    ◎IMDb链接  http://www.imdb.com/title/tt0088814/
    ◎豆瓣评分 6.4/10 from 128 users
    ◎豆瓣链接 https://movie.douban.com/subject/1764798/
    ◎时代影视整理 http://www.sdy4.net
    ◎片  长 80 分钟
    ◎导  演 Ted Berman / Richard Rich
    ◎主  演 Grant Bardsley
          Susan Sheridan
          弗雷迪·琼斯 Freddie Jones
          奈杰尔·霍桑 Nigel Hawthorne
          阿瑟·马利特 Arthur Malet

    ◎简  介

      《黑神锅传奇》The Black Cauldron (Disney Gold Classic Collection) (1985)是迪斯尼经典动画里最另类的一部作品。剧情叙述一位名叫塔兰(Taran)的少年,为了维护家乡和平,而与魔王The Horned King对抗,阻止其利用黑神锅的魔力危害世人。本片也是迪士尼动画第一次利用计算机来辅助拍摄,不过只有短短几个画面而已。
      本片在某些地区上映时采用另一片名“Taran and the Magic Cauldron”,而且片中有一些迪士尼动画里少见的血腥画面,与以往迪士尼动画风格似乎有些不同,因此本片被定位为只针对青少年观众,迥异于其他适合阖家观赏的迪士尼电影。本片也是迪士尼动画第一次藉由电脑来辅助拍摄,不过只有短短几个画面而已,到了隔年的《妙妙探》,迪士尼才第一次用电脑制作出一个独立的场景。本片是迪士尼经典动画里最另类的一部作品,因为走的不是传统家庭路线,故迪士尼对本片是否要推出录影带一直心存观望,况且还有一些版权等的争议…不过经过内部几番沟通后,本片终于在1997年底首度在英国发行录影带,但是心细的影迷立刻发现有几幕被删掉了!为此还向迪士尼提出抗议…至于美国则在1998年首度发行录影带,发行的则是当初完整的版本。

    Video
    ID                                       : 1
    Format                                   : AVC
    Format/Info                              : Advanced Video Codec
    Format profile                           : [email protected]
    Format settings, CABAC                   : Yes
    Format settings, ReFrames                : 4 frames
    Codec ID                                 : V_MPEG4/ISO/AVC
    Duration                                 : 1h 20mn
    Bit rate mode                            : Variable
    Bit rate                                 : 8 517 Kbps
    Maximum bit rate                         : 15.0 Mbps
    Width                                    : 1 920 pixels
    Height                                   : 800 pixels
    Display aspect ratio                     : 2.40:1
    Frame rate mode                          : Constant
    Frame rate                               : 23.976 (24000/1001) fps
    Color space                              : YUV
    Chroma subsampling                       : 4:2:0
    Bit depth                                : 8 bits
    Scan type                                : Progressive
    Bits/(Pixel*Frame)                       : 0.231
    Stream size                              : 4.77 GiB (94%)
    Title                                    : The.Black.Cauldron.1985.1080p.WEBRip.DD5.1.x264-FGT
    Language                                 : English
    Default                                  : Yes
    Forced                                   : No
    Color range                              : Limited
    Color primaries                          : BT.709
    Transfer characteristics                 : BT.709
    Matrix coefficients                      : BT.709

    Audio
    ID                                       : 2
    Format                                   : AC-3
    Format/Info                              : Audio Coding 3
    Mode extension                           : CM (complete main)
    Format settings, Endianness              : Big
    Codec ID                                 : A_AC3
    Duration                                 : 1h 20mn
    Bit rate mode                            : Constant
    Bit rate                                 : 384 Kbps
    Channel(s)                               : 6 channels
    Channel positions                        : Front: L C R, Side: L R, LFE
    Sampling rate                            : 48.0 KHz
    Frame rate                               : 31.250 fps (1536 spf)
    Compression mode                         : Lossy
    Stream size                              : 220 MiB (4%)
    Title                                    : The.Black.Cauldron.1985.1080p.WEBRip.DD5.1.x264-FGT
    Language                                 : English
    Default                                  : Yes
    Forced                                   : No

    Text #1
    ID                                       : 3
    Format                                   : UTF-8
    Codec ID                                 : S_TEXT/UTF8
    Codec ID/Info                            : UTF-8 Plain Text
    Language                                 : English
    Default                                  : Yes
    Forced                                   : No

    Text #2
    ID                                       : 4
    Format                                   : UTF-8
    Codec ID                                 : S_TEXT/UTF8
    Codec ID/Info                            : UTF-8 Plain Text
    Title                                    : SDH
    Language                                 : English
    Default                                  : No
    Forced                                   : No

    Menu
    00:00:00.000                             : enegend Of The Cauldron/Main Title
    00:01:23.166                             : en:The Dreamer
    00:06:32.475                             : en:Hen Wen\'s Vision
    00:09:33.823                             : en:The Great Horned King
    00:11:23.724                             : en:An Introduction To Gurgi
    00:15:07.281                             : en:Hen Wen Is Captured
    00:18:18.805                             : en:The Horned King\'s Demand
    00:26:06.230                             : enrincess Eilonwy
    00:30:14.019                             : en:The Escape
    00:37:58.942                             : en:Gurgi\'s Return
    00:42:31.005                             : en:King Eidilleg And The Fair Folk
    00:48:47.047                             : en:A Trade With Witches Of Morva
    00:58:09.062                             : en:The Power Of The Black Cauldron
    01:03:29.678                             : en:Reversing The Spell
    01:10:57.500                             : en:Another Bargain
    01:16:04.056                             : en:End Credits

    游客,如果您要查看本帖隐藏内容请回复

    本帖子中包含更多资源

    您需要 登录 才可以下载或查看,没有帐号?立即注册

    x
    回复

    使用道具 举报

    您需要登录后才可以回帖 登录 | 立即注册

    本版积分规则

    Archiver|手机版|小黑屋|时代影视论坛(NowYS小组) ( 宁ICP备16002180号-4 )

    GMT+8, 2017-8-21 23:41 , Processed in 0.119103 second(s), 16 queries , Gzip On, Memcache On.

    Powered by 时代影视 X3.2

    © 2001-2013 Comsenz Inc.

    快速回复 返回顶部 返回列表