时代影视论坛(NowYS)

 找回密码
 立即注册
搜索
查看: 77|回复: 0

[WEBRip] 寻找卡米洛城 Quest.for.Camelot.1998.1080p.WEB-DL.DD5.1.H.264-FGT 3.4GB

[复制链接]
 成长值: 690
  • TA的每日心情
    开心
    4 小时前
  • 签到天数: 79 天

    [LV.6]常住居民II

    发表于 2017-2-2 20:19:06 | 显示全部楼层 |阅读模式
    台湾UU

    ◎译  名 寻找卡米洛城/卡麦勒传说/魔剑奇兵
    ◎片  名 Quest for Camelot
    ◎年  代 1998
    ◎国  家 美国
    ◎类  别 动画/家庭/冒险/奇幻/喜剧/剧情
    ◎语  言 英语
    ◎上映日期 1998-07-23
    ◎IMDb评分  6.2/10 from 11,570 users
    ◎IMDb链接  http://www.imdb.com/title/tt0120800/
    ◎豆瓣评分 6.3/10 from 69 users
    ◎豆瓣链接 https://movie.douban.com/subject/1292824/
    ◎时代影视整理 http://www.sdy4.net
    ◎片  长 86 分钟/Germany: 74 分钟
    ◎导  演 Frederik Du Chau
    ◎主  演 Gary Oldman

    ◎简  介

      一千年前的布列颠群岛上,当时王刚登基为王。当邪恶的罗勃和他残暴的助手格利分抢走亚瑟王的石中剑亚瑟王的石中剑石中剑掉在一座浓密可怕的魔法森林;凯莉是一个好胜心强的女孩,她硬著头皮闯进去……

    ◎获奖情况

      第71届奥斯卡金像奖  (1999)
      最佳原创歌曲(提名) Tony Renis / David Foster / 卡罗尔·拜尔·塞杰尔 / Alberto Testa

      第26届动画安妮奖  (1998)
      最佳动画长片(提名)
      最佳动画效果(提名) Michel Gagné


    Video
    ID                                       : 1
    Format                                   : AVC
    Format/Info                              : Advanced Video Codec
    Format profile                           : [email protected]
    Format settings, CABAC                   : Yes
    Format settings, ReFrames                : 4 frames
    Codec ID                                 : V_MPEG4/ISO/AVC
    Duration                                 : 1h 25mn
    Bit rate                                 : 5 272 Kbps
    Width                                    : 1 920 pixels
    Height                                   : 1 080 pixels
    Display aspect ratio                     : 16:9
    Frame rate mode                          : Constant
    Frame rate                               : 23.976 fps
    Color space                              : YUV
    Chroma subsampling                       : 4:2:0
    Bit depth                                : 8 bits
    Scan type                                : Progressive
    Bits/(Pixel*Frame)                       : 0.106
    Stream size                              : 3.16 GiB (91%)
    Title                                    : Quest.for.Camelot.1998.1080p.WEB-DL.DD5.1.H.264-FGT
    Language                                 : English
    Default                                  : Yes
    Forced                                   : No
    Color range                              : Limited
    Color primaries                          : BT.709
    Transfer characteristics                 : BT.709
    Matrix coefficients                      : BT.709

    Audio
    ID                                       : 2
    Format                                   : AC-3
    Format/Info                              : Audio Coding 3
    Mode extension                           : CM (complete main)
    Format settings, Endianness              : Big
    Codec ID                                 : A_AC3
    Duration                                 : 1h 25mn
    Bit rate mode                            : Constant
    Bit rate                                 : 384 Kbps
    Channel(s)                               : 6 channels
    Channel positions                        : Front: L C R, Side: L R, LFE
    Sampling rate                            : 48.0 KHz
    Frame rate                               : 31.250 fps (1536 spf)
    Compression mode                         : Lossy
    Stream size                              : 236 MiB (7%)
    Title                                    : Quest.for.Camelot.1998.1080p.WEB-DL.DD5.1.H.264-FGT
    Language                                 : English
    Default                                  : Yes
    Forced                                   : No

    Text
    ID                                       : 3
    Format                                   : UTF-8
    Codec ID                                 : S_TEXT/UTF8
    Codec ID/Info                            : UTF-8 Plain Text
    Language                                 : English
    Default                                  : Yes
    Forced                                   : No

    游客,如果您要查看本帖隐藏内容请回复

    本帖子中包含更多资源

    您需要 登录 才可以下载或查看,没有帐号?立即注册

    x
    回复

    使用道具 举报

    您需要登录后才可以回帖 登录 | 立即注册

    本版积分规则

    Archiver|手机版|小黑屋|时代影视论坛(NowYS小组) ( 宁ICP备16002180号-4 )

    GMT+8, 2017-3-2 04:31 , Processed in 0.183116 second(s), 14 queries , Gzip On, Memcache On.

    Powered by 时代影视 X3.2

    © 2001-2013 Comsenz Inc.

    快速回复 返回顶部 返回列表