时代影视论坛(NowYS)

 找回密码
 立即注册
搜索
查看: 111|回复: 0

[WEBRip] 电影序曲:片头大师 Pablo.2012.1080p.WEBRip.DD2.0.x264-monkee 5.5GB

[复制链接]
  • TA的每日心情
    开心
    3 天前
  • 签到天数: 153 天

    [LV.7]常住居民III

    发表于 2017-2-2 20:21:07 | 显示全部楼层 |阅读模式
    台湾UU


    ◎译  名 電影序曲:片頭大師(台)
    ◎片  名 Pablo
    ◎年  代 2012
    ◎国  家 美国
    ◎类  别 动画/传记
    ◎语  言 英语
    ◎IMDb评分  7.0/10 from 120 users
    ◎IMDb链接  http://www.imdb.com/title/tt1049406/
    ◎豆瓣评分 8.1/10 from 27 users
    ◎豆瓣链接 https://movie.douban.com/subject/2996606/
    ◎时代影视整理 http://www.sdy4.net
    ◎导  演 Richard Goldgewicht
    ◎主  演 Jeff Bridges
          Andy Garcia

    ◎简  介

      Pablo blends documentary and animation elements to tell the saga of "famous unknown" Pablo Ferro| a man with a personal journey that spans from Havana| during thepre-Cuban revolution to his current home| in the garage behind his son's house. The animation part of the film takes us through the dream-scape of Pablo's memories|while the documentary footage chronicles a very eccentric lifestyle of a 72 year old artist| once hailed by Stanley Kubrick as the father of the sixties look and theMTV aesthetics.


    Video
    ID                                       : 2
    Format                                   : AVC
    Format/Info                              : Advanced Video Codec
    Format profile                           : [email protected]
    Format settings, CABAC                   : Yes
    Format settings, ReFrames                : 4 frames
    Codec ID                                 : V_MPEG4/ISO/AVC
    Duration                                 : 1h 30mn
    Bit rate mode                            : Variable
    Bit rate                                 : 8 289 Kbps
    Maximum bit rate                         : 15.0 Mbps
    Width                                    : 1 920 pixels
    Height                                   : 1 080 pixels
    Display aspect ratio                     : 16:9
    Frame rate mode                          : Constant
    Frame rate                               : 23.976 (24000/1001) fps
    Color space                              : YUV
    Chroma subsampling                       : 4:2:0
    Bit depth                                : 8 bits
    Scan type                                : Progressive
    Bits/(Pixel*Frame)                       : 0.167
    Stream size                              : 5.25 GiB (95%)
    Writing library                          : x264 core 148 r2623 d5b2374
    Encoding settings                        : cabac=1 / ref=4 / deblock=1:-1:-1 / analyse=0x3:0x133 / me=umh / subme=9 / psy=1 / psy_rd=1.00:0.15 / mixed_ref=1 / me_range=24 / chroma_me=1 / trellis=2 / 8x8dct=1 / cqm=0 / deadzone=21,11 / fast_pskip=1 / chroma_qp_offset=-3 / threads=34 / lookahead_threads=5 / sliced_threads=0 / nr=150 / decimate=1 / interlaced=0 / bluray_compat=0 / constrained_intra=0 / bframes=8 / b_pyramid=2 / b_adapt=2 / b_bias=0 / direct=3 / weightb=1 / open_gop=0 / weightp=2 / keyint=120 / keyint_min=61 / scenecut=0 / intra_refresh=0 / rc_lookahead=120 / rc=crf / mbtree=1 / crf=18.0 / qcomp=0.60 / qpmin=0 / qpmax=69 / qpstep=4 / vbv_maxrate=15000 / vbv_bufsize=31250 / crf_max=0.0 / nal_hrd=vbr / filler=0 / ip_ratio=1.40 / aq=3:1.00
    Default                                  : Yes
    Forced                                   : No
    Color range                              : Limited
    Color primaries                          : BT.709
    Transfer characteristics                 : BT.709
    Matrix coefficients                      : BT.709

    Audio
    ID                                       : 3
    Format                                   : E-AC-3
    Format/Info                              : Audio Coding 3
    Format settings, Endianness              : Big
    Codec ID                                 : A_EAC3
    Duration                                 : 1h 30mn
    Bit rate mode                            : Constant
    Bit rate                                 : 224 Kbps
    Channel(s)                               : 2 channels
    Channel positions                        : Front: L R
    Sampling rate                            : 48.0 KHz
    Frame rate                               : 187.500 fps (256 spf)
    Compression mode                         : Lossy
    Stream size                              : 145 MiB (3%)
    Language                                 : English
    Default                                  : Yes
    Forced                                   : No

    Text
    ID                                       : 1
    Format                                   : UTF-8
    Codec ID                                 : S_TEXT/UTF8
    Codec ID/Info                            : UTF-8 Plain Text
    Language                                 : English
    Default                                  : No
    Forced                                   : No

    游客,如果您要查看本帖隐藏内容请回复

    本帖子中包含更多资源

    您需要 登录 才可以下载或查看,没有帐号?立即注册

    x
    回复

    使用道具 举报

    您需要登录后才可以回帖 登录 | 立即注册

    本版积分规则

    Archiver|手机版|小黑屋|时代影视论坛(NowYS小组) ( 宁ICP备16002180号-4 )

    GMT+8, 2017-8-21 23:41 , Processed in 0.124364 second(s), 13 queries , Gzip On, Memcache On.

    Powered by 时代影视 X3.2

    © 2001-2013 Comsenz Inc.

    快速回复 返回顶部 返回列表