时代影视论坛(NowYS)

 找回密码
 立即注册
搜索
查看: 62|回复: 0

[720p] 黑暗正义联盟 Justice.League.Dark.2017.720p.BluRay.x264.DTS-MT 4.77GB

[复制链接]
 成长值: 585
  • TA的每日心情
    开心
    21 小时前
  • 签到天数: 72 天

    [LV.6]常住居民II

    发表于 2017-2-3 01:26:09 | 显示全部楼层 |阅读模式
    台湾UU


    ◎译  名 黑暗正义联盟
    ◎片  名 Justice League Dark
    ◎年  代 2017
    ◎国  家 美国
    ◎类  别 动画/奇幻
    ◎语  言 英语
    ◎上映日期 2017-02-07(美国)/2017-01-24(数字版)
    ◎IMDb评分  7.9/10 from 123 users
    ◎IMDb链接  http://www.imdb.com/title/tt2494376/
    ◎豆瓣评分 7.8/10 from 47 users
    ◎豆瓣链接 https://movie.douban.com/subject/26277361/
    ◎时代影视整理 http://www.sdy4.net
    ◎片  长 75分钟
    ◎导  演 杰伊·欧力瓦 Jay Oliva
    ◎主  演 马特·瑞安 Matt Ryan
          卡米拉·卢丁顿 Camilla Luddington
          杰森·奥玛拉 Jason O'Mara
          尼古拉斯·特图罗 Nicholas Turturro
          迪·布拉雷·贝克尔 Dee Bradley Baker
          弗莱德·塔他斯西奥 Fred Tatasciore
          Ray Chase

    ◎简  介

      It's official: "Justice League Dark" is going to become an animated film. At the "Batman: The Killing Joke" premiere at Comic-Con International in San Diego, Gary Miereanu named three new DC Comics animated films, including "Justice League Dark."

    Video
    ID                                       : 1
    Format                                   : AVC
    Format/Info                              : Advanced Video Codec
    Format profile                           : [email protected]
    Format settings, CABAC                   : Yes
    Format settings, ReFrames                : 9 frames
    Muxing mode                              : Header stripping
    Codec ID                                 : V_MPEG4/ISO/AVC
    Duration                                 : 1h 15mn
    Bit rate                                 : 7 500 Kbps
    Width                                    : 1 280 pixels
    Height                                   : 720 pixels
    Display aspect ratio                     : 16:9
    Frame rate mode                          : Constant
    Frame rate                               : 23.976 (24000/1001) fps
    Color space                              : YUV
    Chroma subsampling                       : 4:2:0
    Bit depth                                : 8 bits
    Scan type                                : Progressive
    Bits/(Pixel*Frame)                       : 0.339
    Stream size                              : 3.88 GiB (81%)
    Writing library                          : x264 core 142 r2431+42 c69a006 tMod [[email protected] X86]
    Encoding settings                        : cabac=1 / ref=9 / deblock=1:0:0 / analyse=0x3:0x113 / me=umh / subme=10 / psy=1 / fade_compensate=0.00 / psy_rd=1.05:0.10 / mixed_ref=1 / me_range=32 / chroma_me=1 / trellis=2 / 8x8dct=1 / cqm=0 / deadzone=21,11 / fast_pskip=0 / chroma_qp_offset=-2 / threads=12 / lookahead_threads=1 / sliced_threads=0 / nr=0 / decimate=1 / interlaced=0 / bluray_compat=0 / constrained_intra=0 / fgo=0 / bframes=6 / b_pyramid=2 / b_adapt=2 / b_bias=0 / direct=3 / weightb=1 / open_gop=0 / weightp=2 / keyint=250 / keyint_min=23 / scenecut=40 / intra_refresh=0 / rc=2pass / mbtree=0 / bitrate=7500 / ratetol=1.0 / qcomp=0.70 / qpmin=0:0:0 / qpmax=69:69:69 / qpstep=4 / cplxblur=20.0 / qblur=0.5 / ip_ratio=1.40 / pb_ratio=1.30 / aq=2:1.00 / aq-sensitivity=10.00 / aq-factor=1.00:1.00:1.00 / aq2=0 / aq3=0
    Default                                  : Yes
    Forced                                   : No

    Audio
    ID                                       : 2
    Format                                   : DTS
    Format/Info                              : Digital Theater Systems
    Mode                                     : 16
    Format settings, Endianness              : Big
    Muxing mode                              : Header stripping
    Codec ID                                 : A_DTS
    Duration                                 : 1h 15mn
    Bit rate mode                            : Constant
    Bit rate                                 : 1 509 Kbps
    Channel(s)                               : 6 channels
    Channel positions                        : Front: L C R, Side: L R, LFE
    Sampling rate                            : 48.0 KHz
    Frame rate                               : 93.750 fps (512 spf)
    Bit depth                                : 24 bits
    Compression mode                         : Lossy
    Stream size                              : 819 MiB (17%)
    Language                                 : English
    Default                                  : Yes
    Forced                                   : No

    游客,如果您要查看本帖隐藏内容请回复

    本帖子中包含更多资源

    您需要 登录 才可以下载或查看,没有帐号?立即注册

    x
    回复

    使用道具 举报

    您需要登录后才可以回帖 登录 | 立即注册

    本版积分规则

    Archiver|手机版|小黑屋|时代影视论坛(NowYS小组) ( 宁ICP备16002180号-4 )

    GMT+8, 2017-2-23 21:55 , Processed in 0.582085 second(s), 17 queries , Gzip On, Memcache On.

    Powered by 时代影视 X3.2

    © 2001-2013 Comsenz Inc.

    快速回复 返回顶部 返回列表