时代影视论坛(NowYS)

 找回密码
 立即注册
搜索
查看: 42|回复: 0

[720p] 超级曼尼 Super.Manny.2013.720p.BluRay.x264-FLAME 204MB

[复制链接]
 成长值: 690
  • TA的每日心情
    开心
    4 小时前
  • 签到天数: 79 天

    [LV.6]常住居民II

    发表于 2017-2-3 11:12:45 | 显示全部楼层 |阅读模式
    台湾UU

    ◎译  名 超级曼尼
    ◎片  名 Super Manny
    ◎年  代 2013
    ◎国  家 美国
    ◎类  别 动画/短片
    ◎语  言 英语
    ◎上映日期 2013-10-02
    ◎IMDb评分  6.3/10 from 43 users
    ◎IMDb链接  http://www.imdb.com/title/tt3282750/
    ◎时代影视整理 http://www.sdy4.net
    ◎片  长 5分钟
    ◎导  演 David Feiss
    ◎主  演 安娜·法瑞丝 Anna Faris
          本杰明·布拉特 Benjamin Bratt
          Craig Kellman
          Craig Shoemaker

    ◎简  介

      None

    Video
    ID : 1
    Format : AVC
    Format/Info : Advanced Video Codec
    Format profile : [email protected]
    Format settings, CABAC : Yes
    Format settings, ReFrames : 8 frames
    Codec ID : V_MPEG4/ISO/AVC
    Duration : 4 min 22 s
    Bit rate : 5 000 kb/s
    Width : 1 280 pixels
    Height : 720 pixels
    Display aspect ratio : 16:9
    Frame rate mode : Constant
    Frame rate : 23.976 (24000/1001) FPS
    Color space : YUV
    Chroma subsampling : 4:2:0
    Bit depth : 8 bits
    Scan type : Progressive
    Bits/(Pixel*Frame) : 0.226
    Stream size : 156 MiB (96%)
    Writing library : x264 core 148 r2762 90a61ec
    Encoding settings : cabac=1 / ref=8 / deblock=1:-2:-2 / analyse=0x3:0x133 / me=umh / subme=9 / psy=1 / psy_rd=1.00:0.00 / mixed_ref=1 / me_range=16 / chroma_me=1 / trellis=2 / 8x8dct=1 / cqm=0 / deadzone=21,11 / fast_pskip=0 / chroma_qp_offset=-2 / threads=12 / lookahead_threads=1 / sliced_threads=0 / nr=0 / decimate=1 / interlaced=0 / bluray_compat=0 / constrained_intra=0 / bframes=3 / b_pyramid=2 / b_adapt=2 / b_bias=0 / direct=3 / weightb=1 / open_gop=0 / weightp=2 / keyint=250 / keyint_min=23 / scenecut=40 / intra_refresh=0 / rc_lookahead=60 / rc=2pass / mbtree=1 / bitrate=5000 / ratetol=1.0 / qcomp=0.60 / qpmin=10 / qpmax=69 / qpstep=4 / cplxblur=20.0 / qblur=0.5 / ip_ratio=1.40 / aq=1:0.70
    Language : English
    Default : Yes
    Forced : No

    Audio
    ID : 2
    Format : AC-3
    Format/Info : Audio Coding 3
    Format profile : Dolby Digital
    Mode extension : CM (complete main)
    Format settings, Endianness : Big
    Codec ID : A_AC3
    Duration : 4 min 22 s
    Bit rate mode : Constant
    Bit rate : 192 kb/s
    Channel(s) : 2 channels
    Channel positions : Front: L R
    Sampling rate : 48.0 kHz
    Frame rate : 31.250 FPS (1536 spf)
    Compression mode : Lossy
    Stream size : 6.01 MiB (4%)
    Title : English AC3 192 kbps
    Language : English
    Default : Yes
    Forced : No

    游客,如果您要查看本帖隐藏内容请回复

    本帖子中包含更多资源

    您需要 登录 才可以下载或查看,没有帐号?立即注册

    x
    回复

    使用道具 举报

    您需要登录后才可以回帖 登录 | 立即注册

    本版积分规则

    Archiver|手机版|小黑屋|时代影视论坛(NowYS小组) ( 宁ICP备16002180号-4 )

    GMT+8, 2017-3-2 04:33 , Processed in 0.198130 second(s), 13 queries , Gzip On, Memcache On.

    Powered by 时代影视 X3.2

    © 2001-2013 Comsenz Inc.

    快速回复 返回顶部 返回列表