时代影视论坛(NowYS)

 找回密码
 立即注册
搜索
查看: 147|回复: 1

极限飞跃:冒险的内涵 Adrenaline.Rush.2002.1080p.BluRay.x264-METH 2.65GB

[复制链接]
  • TA的每日心情
    无聊
    2017-12-7 23:30
  • 签到天数: 199 天

    [LV.7]常住居民III

    发表于 2017-2-4 00:13:08 | 显示全部楼层 |阅读模式
    台湾UU


    ◎译  名 极限飞跃:冒险的内涵
    ◎片  名 Adrenaline Rush: The Science of Risk
    ◎年  代 2002
    ◎国  家 加拿大
    ◎语  言 英语
    ◎上映日期 2002-10-11
    ◎IMDb评分  7.3/10 from 220 users
    ◎IMDb链接  http://www.imdb.com/title/tt0353164/
    ◎豆瓣评分 8.4/10 from 187 users
    ◎豆瓣链接 https://movie.douban.com/subject/3139572/
    ◎时代影视整理 http://www.sdy4.net
    ◎导  演 Marc Fafard
    ◎主  演 George Morris

    ◎简  介

      一个掌管着数亿资产的企业家热衷于某种冒险体育活动,这种舍身家性命不顾的行为令不少人大惑不解。攀登者的勇气来自强健的体格和娴熟的登山技巧,本片探讨“到底什么是胆量”。
      胆量是经营决策者不可或缺的品质。对于任何一个经营者,无法回避的问题是,你必须在复杂多变的市场环境中求得生存和发展,必须直面各种不确定性风险带来的挑战。无数事实说明,有了善于审时度势、选择正确、决策果断的经营者,对于一家企业保持长盛不衰是何等的重要。
      “胆大为王”是对“有胆有识”的一种诠释,并不代表脱离现实的武断和蛮乾,而是代表着坚持用缜密思维和科学方法应对“不测风云”,代表着经过仔细观察和深思熟虑后作出的正确决择。“胆大为王”又是对“谨小慎微”和“优柔寡断”的否定。

    Video
    ID                                       : 1
    Format                                   : AVC
    Format/Info                              : Advanced Video Codec
    Format profile                           : High@L4.1
    Format settings, CABAC                   : Yes
    Format settings, ReFrames                : 4 frames
    Codec ID                                 : V_MPEG4/ISO/AVC
    Duration                                 : 37mn 51s
    Bit rate                                 : 8 505 Kbps
    Width                                    : 1 920 pixels
    Height                                   : 1 080 pixels
    Display aspect ratio                     : 16:9
    Frame rate mode                          : Constant
    Frame rate                               : 23.976 (24000/1001) fps
    Original frame rate                      : 23.976 (23976/1000) fps
    Color space                              : YUV
    Chroma subsampling                       : 4:2:0
    Bit depth                                : 8 bits
    Scan type                                : Progressive
    Bits/(Pixel*Frame)                       : 0.171
    Stream size                              : 2.20 GiB (83%)
    Writing library                          : x264 core 115 r1995 c1e60b9
    Encoding settings                        : cabac=1 / ref=4 / deblock=1:0:0 / analyse=0x3:0x133 / me=umh / subme=7 / psy=1 / psy_rd=1.00:0.00 / mixed_ref=1 / me_range=16 / chroma_me=1 / trellis=1 / 8x8dct=1 / cqm=0 / deadzone=21,11 / fast_pskip=0 / chroma_qp_offset=-2 / threads=12 / sliced_threads=0 / nr=0 / decimate=1 / interlaced=0 / bluray_compat=0 / constrained_intra=0 / bframes=3 / b_pyramid=2 / b_adapt=1 / b_bias=0 / direct=1 / weightb=1 / open_gop=0 / weightp=2 / keyint=250 / keyint_min=23 / scenecut=40 / intra_refresh=0 / rc_lookahead=40 / rc=2pass / mbtree=1 / bitrate=8505 / ratetol=1.0 / qcomp=0.60 / qpmin=0 / qpmax=69 / qpstep=4 / cplxblur=20.0 / qblur=0.5 / ip_ratio=1.40 / aq=1:1.00
    Language                                 : English
    Default                                  : Yes
    Forced                                   : No

    Audio
    ID                                       : 2
    Format                                   : DTS
    Format/Info                              : Digital Theater Systems
    Mode                                     : 16
    Format settings, Endianness              : Big
    Codec ID                                 : A_DTS
    Duration                                 : 37mn 51s
    Bit rate mode                            : Constant
    Bit rate                                 : 1 509 Kbps
    Channel(s)                               : 6 channels
    Channel positions                        : Front: L C R, Side: L R, LFE
    Sampling rate                            : 48.0 KHz
    Frame rate                               : 93.750 fps (512 spf)
    Bit depth                                : 24 bits
    Compression mode                         : Lossy
    Stream size                              : 409 MiB (15%)
    Default                                  : Yes
    Forced                                   : No

    游客,如果您要查看本帖隐藏内容请回复

    本帖子中包含更多资源

    您需要 登录 才可以下载或查看,没有帐号?立即注册

    x
    回复

    使用道具 举报

  • TA的每日心情
    开心
    14 小时前
  • 签到天数: 114 天

    [LV.6]常住居民II

    发表于 2017-11-28 06:50:19 | 显示全部楼层
    我看不错噢 谢谢楼主!
    回复 支持 反对

    使用道具 举报

    您需要登录后才可以回帖 登录 | 立即注册

    本版积分规则

    Archiver|手机版|小黑屋|时代影视论坛(NowYS小组) ( 宁ICP备16002180号-4 )

    GMT+8, 2017-12-15 22:09 , Processed in 0.170345 second(s), 15 queries , Gzip On, Memcache On.

    Powered by 时代影视 X3.2

    © 2001-2013 Comsenz Inc.

    快速回复 返回顶部 返回列表