时代影视论坛(NowYS)

 找回密码
 立即注册
搜索
查看: 43|回复: 0

[1080p] 哈佛比耶鲁:29-29 Harvard.Beats.Yale.29.29.2008.1080p.Bluray.x264-HD4U 6.5GB

[复制链接]
 成长值: 585
  • TA的每日心情
    开心
    21 小时前
  • 签到天数: 72 天

    [LV.6]常住居民II

    发表于 2017-2-4 00:16:23 | 显示全部楼层 |阅读模式
    台湾UU

    ◎译  名 哈佛比耶鲁:29-29
    ◎片  名 Harvard Beats Yale 29-29
    ◎年  代 2008
    ◎国  家 美国
    ◎类  别 纪录片/传记/运动/战争
    ◎语  言 英语
    ◎上映日期 2008-09-05
    ◎IMDb评分  7.2/10 from 554 users
    ◎IMDb链接  http://www.imdb.com/title/tt1286800/
    ◎时代影视整理 http://www.sdy4.net
    ◎片  长 115分钟
    ◎导  演 Kevin Rafferty
    ◎主  演 汤米·李·琼斯 Tommy Lee Jones
          Vic Gatto
          Brian Dowling

    ◎简  介

      这部纪录片讲述了哈佛耶鲁于1968年进行的堪称传奇的橄榄球比赛,由汤米·李·琼斯领衔暂落下风的哈佛队,对战布莱恩·唐宁率领似乎不可战胜的耶鲁队,在比赛的最后42秒,哈佛队从29-13的比分颓势中成功逆转。


    Video
    ID                                       : 1
    Format                                   : AVC
    Format/Info                              : Advanced Video Codec
    Format profile                           : [email protected]
    Format settings, CABAC                   : Yes
    Format settings, ReFrames                : 4 frames
    Codec ID                                 : V_MPEG4/ISO/AVC
    Duration                                 : 1h 44mn
    Bit rate                                 : 8 349 Kbps
    Width                                    : 1 920 pixels
    Height                                   : 1 080 pixels
    Display aspect ratio                     : 16:9
    Frame rate mode                          : Constant
    Frame rate                               : 29.970 (30000/1001) fps
    Color space                              : YUV
    Chroma subsampling                       : 4:2:0
    Bit depth                                : 8 bits
    Scan type                                : Progressive
    Bits/(Pixel*Frame)                       : 0.134
    Stream size                              : 5.96 GiB (91%)
    Writing library                          : x264 core 105 r1732 2b04482
    Encoding settings                        : cabac=1 / ref=4 / deblock=1:-1:-1 / analyse=0x3:0x113 / me=umh / subme=7 / psy=1 / psy_rd=1.00:0.00 / mixed_ref=1 / me_range=16 / chroma_me=1 / trellis=1 / 8x8dct=1 / cqm=0 / deadzone=21,11 / fast_pskip=1 / chroma_qp_offset=-2 / threads=12 / sliced_threads=0 / nr=0 / decimate=1 / interlaced=0 / constrained_intra=0 / bframes=3 / b_pyramid=2 / b_adapt=2 / b_bias=0 / direct=3 / weightb=1 / open_gop=0 / weightp=2 / keyint=250 / keyint_min=25 / scenecut=40 / intra_refresh=0 / rc_lookahead=40 / rc=2pass / mbtree=1 / bitrate=8349 / ratetol=1.0 / qcomp=0.60 / qpmin=10 / qpmax=51 / qpstep=4 / cplxblur=20.0 / qblur=0.5 / vbv_maxrate=50000 / vbv_bufsize=50000 / ip_ratio=1.40 / aq=1:1.00 / nal_hrd=none
    Language                                 : English
    Default                                  : Yes
    Forced                                   : Yes

    Audio
    ID                                       : 2
    Format                                   : AC-3
    Format/Info                              : Audio Coding 3
    Mode extension                           : CM (complete main)
    Format settings, Endianness              : Big
    Codec ID                                 : A_AC3
    Duration                                 : 1h 44mn
    Bit rate mode                            : Constant
    Bit rate                                 : 640 Kbps
    Channel(s)                               : 2 channels
    Channel positions                        : Front: L R
    Sampling rate                            : 48.0 KHz
    Frame rate                               : 31.250 fps (1536 spf)
    Compression mode                         : Lossy
    Stream size                              : 478 MiB (7%)
    Language                                 : English
    Default                                  : Yes
    Forced                                   : Yes

    游客,如果您要查看本帖隐藏内容请回复

    本帖子中包含更多资源

    您需要 登录 才可以下载或查看,没有帐号?立即注册

    x
    回复

    使用道具 举报

    您需要登录后才可以回帖 登录 | 立即注册

    本版积分规则

    Archiver|手机版|小黑屋|时代影视论坛(NowYS小组) ( 宁ICP备16002180号-4 )

    GMT+8, 2017-2-23 21:51 , Processed in 0.153730 second(s), 14 queries , Gzip On, Memcache On.

    Powered by 时代影视 X3.2

    © 2001-2013 Comsenz Inc.

    快速回复 返回顶部 返回列表