时代影视论坛(NowYS)

 找回密码
 立即注册
搜索
查看: 77|回复: 1

[1080p] 大都会 Metropolis.2001.1080p.BluRay.x264.DD5.1-FGT 12.62GB

[复制链接]
  • TA的每日心情
    开心
    13 小时前
  • 签到天数: 102 天

    [LV.6]常住居民II

    发表于 2017-2-5 02:38:17 | 显示全部楼层 |阅读模式
    台湾UU


    ◎译  名 大都会
    ◎片  名 メトロポリス
    ◎年  代 2001
    ◎国  家 日本
    ◎类  别 冒险/动画/科幻/动作/犯罪/剧情/爱情/惊悚
    ◎语  言 英语/法语/德语/意大利语/西班牙语/日语/俄语
    ◎上映日期 2001-05-26(日本)/2002-01-25(美国)
    ◎IMDb评分  7.3/10 from 17,273 users
    ◎IMDb链接  http://www.imdb.com/title/tt0293416/
    ◎豆瓣评分 8.2/10 from 12,501 users
    ◎豆瓣链接 https://movie.douban.com/subject/1291569/
    ◎时代影视整理 http://www.sdy4.net
    ◎片  长 108 分钟/Japan: 113 分钟
    ◎导  演 林太郎 Rintaro
    ◎主  演 井元由香
          小林桂
          冈田浩晖
          石田太郎 Tarô Ishida
          富田耕生 Kousei Tomita
          若本规夫 Norio Wakamoto
          泷口顺平 Junpei Takiguchi
          古川登志夫 Toshio Furukawa
          千叶繁 Shigeru Chiba
          小山茉美 Mami Koyama
          隆大介 Daisuke Ryû
          永井豪 Gô Nagai
          本多俊之 Toshiyuki Honda
          青野武 Takeshi Aono

    ◎简  介

      大都市梅陀宝丽斯,被称之为本时代进步象征的超级摩天大厦正在举行落成典礼。手握本市实权的RED先生(石田太郎 配音)台上演讲正酣,台下一名黑衣青年男子ROCK(冈田浩晖 配音)却在警备重重下公然拔枪杀人,群众一阵哗然骚乱。目睹此事的日本侦探伴俊作,携外甥剑一(小林桂 配音),开始进行全市的追凶调查。但是ROCK被判明只是射杀了机器人,凶手若无其事的离去了。
      梅陀宝丽斯由先进的地上部分和颓败的地下部分构成二重结构的都市体系,在这个城市生存的人类中间,有从高度发达的机器人世界中受益,享受文明技术优越性的人,也有反之被机器人夺走工作无以糊口的人,还有要求让机器人同样享有人权自由的群众团体。随着调查的深入,实施的真相渐渐浮出水面,机器人和人类最终是一起平等生存,还是一起毁灭……
      本片改编自手冢治虫出版于1949年的同名漫画。

    Video
    ID                                       : 1
    Format                                   : AVC
    Format/Info                              : Advanced Video Codec
    Format profile                           : High@L4.1
    Format settings, CABAC                   : Yes
    Format settings, ReFrames                : 4 frames
    Codec ID                                 : V_MPEG4/ISO/AVC
    Duration                                 : 1h 47mn
    Bit rate                                 : 16.0 Mbps
    Width                                    : 1 818 pixels
    Height                                   : 994 pixels
    Display aspect ratio                     : 1.85:1
    Frame rate mode                          : Constant
    Frame rate                               : 23.976 (24000/1001) fps
    Color space                              : YUV
    Chroma subsampling                       : 4:2:0
    Bit depth                                : 8 bits
    Scan type                                : Progressive
    Bits/(Pixel*Frame)                       : 0.370
    Stream size                              : 12.0 GiB (95%)
    Writing library                          : x264 core 125 r2200 999b753
    Encoding settings                        : cabac=1 / ref=4 / deblock=1:0:0 / analyse=0x3:0x133 / me=umh / subme=10 / psy=1 / psy_rd=1.00:0.00 / mixed_ref=1 / me_range=16 / chroma_me=1 / trellis=2 / 8x8dct=1 / cqm=0 / deadzone=21,11 / fast_pskip=1 / chroma_qp_offset=-2 / threads=6 / lookahead_threads=1 / sliced_threads=0 / nr=0 / decimate=0 / interlaced=0 / bluray_compat=0 / constrained_intra=0 / bframes=3 / b_pyramid=2 / b_adapt=1 / b_bias=0 / direct=3 / weightb=1 / open_gop=0 / weightp=2 / keyint=240 / keyint_min=23 / scenecut=40 / intra_refresh=0 / rc_lookahead=40 / rc=crf / mbtree=1 / crf=16.0 / qcomp=0.60 / qpmin=0 / qpmax=69 / qpstep=4 / vbv_maxrate=38000 / vbv_bufsize=30000 / crf_max=0.0 / nal_hrd=none / ip_ratio=1.40 / aq=1:1.00
    Language                                 : English
    Default                                  : Yes
    Forced                                   : No

    Audio
    ID                                       : 2
    Format                                   : AC-3
    Format/Info                              : Audio Coding 3
    Mode extension                           : CM (complete main)
    Format settings, Endianness              : Big
    Codec ID                                 : A_AC3
    Duration                                 : 1h 47mn
    Bit rate mode                            : Constant
    Bit rate                                 : 448 Kbps
    Channel(s)                               : 6 channels
    Channel positions                        : Front: L C R, Side: L R, LFE
    Sampling rate                            : 48.0 KHz
    Frame rate                               : 31.250 fps (1536 spf)
    Compression mode                         : Lossy
    Delay relative to video                  : 4ms
    Stream size                              : 345 MiB (3%)
    Language                                 : English
    Default                                  : Yes
    Forced                                   : No

    Menu
    00:00:00.000                             : en:00:00:00.000
    00:03:07.729                             : en:00:03:07.729
    00:04:53.251                             : en:00:04:53.251
    00:05:58.941                             : en:00:05:58.941
    00:06:55.665                             : en:00:06:55.665
    00:07:36.706                             : en:00:07:36.706
    00:09:34.282                             : en:00:09:34.282
    00:10:23.247                             : en:00:10:23.247
    00:13:08.162                             : en:00:13:08.162
    00:14:13.727                             : en:00:14:13.727
    00:16:21.897                             : en:00:16:21.897
    00:19:12.276                             : en:00:19:12.276
    00:22:28.847                             : en:00:22:28.847
    00:23:28.907                             : en:00:23:28.907
    00:24:34.472                             : en:00:24:34.472
    00:25:33.448                             : en:00:25:33.448
    00:27:08.460                             : en:00:27:08.460
    00:28:50.562                             : en:00:28:50.562
    00:30:38.169                             : en:00:30:38.169
    00:33:21.290                             : en:00:33:21.290
    00:35:12.443                             : en:00:35:12.443
    00:36:26.934                             : en:00:36:26.934
    00:38:01.028                             : en:00:38:01.028
    00:38:40.067                             : en:00:38:40.067
    00:39:22.401                             : en:00:39:22.401
    00:41:25.858                             : en:00:41:25.858
    00:43:20.723                             : en:00:43:20.723
    00:46:06.096                             : en:00:46:06.096
    00:47:13.914                             : en:00:47:13.914
    00:48:53.555                             : en:00:48:53.555
    00:49:45.524                             : en:00:49:45.524
    00:50:40.078                             : en:00:50:40.078
    00:52:12.295                             : en:00:52:12.295
    00:53:14.608                             : en:00:53:14.608
    00:54:45.824                             : en:00:54:45.824
    00:56:43.149                             : en:00:56:43.149
    00:57:58.433                             : en:00:57:58.433
    00:59:25.979                             : en:00:59:25.979
    01:01:46.244                             : en:01:01:46.244
    01:03:30.306                             : en:01:03:30.306
    01:06:09.006                             : en:01:06:09.006
    01:07:32.089                             : en:01:07:32.089
    01:08:39.281                             : en:01:08:39.281
    01:09:34.587                             : en:01:09:34.587
    01:12:19.710                             : en:01:12:19.710
    01:13:54.680                             : en:01:13:54.680
    01:16:03.016                             : en:01:16:03.016
    01:17:48.413                             : en:01:17:48.413
    01:19:24.134                             : en:01:19:24.134
    01:20:35.163                             : en:01:20:35.163
    01:24:11.421                             : en:01:24:11.421
    01:26:15.336                             : en:01:26:15.336
    01:27:49.555                             : en:01:27:49.555
    01:30:11.906                             : en:01:30:11.906
    01:32:01.724                             : en:01:32:01.724
    01:34:14.440                             : en:01:34:14.440
    01:38:57.348                             : en:01:38:57.348
    01:42:45.186                             : en:01:42:45.158

    游客,如果您要查看本帖隐藏内容请回复

    本帖子中包含更多资源

    您需要 登录 才可以下载或查看,没有帐号?立即注册

    x
    回复

    使用道具 举报

  • TA的每日心情
    开心
    15 小时前
  • 签到天数: 34 天

    [LV.5]常住居民I

    发表于 2017-2-12 21:19:47 | 显示全部楼层
    感谢楼主分享
    回复 支持 反对

    使用道具 举报

    您需要登录后才可以回帖 登录 | 立即注册

    本版积分规则

    Archiver|手机版|小黑屋|时代影视论坛(NowYS小组) ( 宁ICP备16002180号-4 )

    GMT+8, 2017-3-25 15:39 , Processed in 0.117352 second(s), 13 queries , Gzip On, Memcache On.

    Powered by 时代影视 X3.2

    © 2001-2013 Comsenz Inc.

    快速回复 返回顶部 返回列表