时代影视论坛(NowYS)

 找回密码
 立即注册
搜索
查看: 205|回复: 4

[Rip] 特朗普:如何成为美国最招黑的政治家 Trumped.Inside.the.Greatest.Political.Upset.of.All.Time.2017.720p.HDTV.x264-W4F 1.68GB

[复制链接]
  • TA的每日心情
    郁闷
    2 小时前
  • 签到天数: 141 天

    [LV.7]常住居民III

    发表于 2017-2-5 12:53:47 | 显示全部楼层 |阅读模式
    台湾UU

    ◎译  名 特朗普:如何成为美国最招黑的政治家
    ◎片  名 Trumped: Inside the Greatest Political Upset of All Time
    ◎年  代 2017
    ◎国  家 美国
    ◎类  别 纪录片
    ◎上映日期 2017-01-27(圣丹斯电影节)
    ◎时代影视整理 http://www.sdy4.net
    ◎导  演 Ted Bourne / Mary Robertson / Banks Tarver

    ◎简  介

      继昨日金球奖梅姨炮轰特朗普后,圣丹斯电影节又宣布把一部讲述特朗普的纪录片《特朗普:如何成为美国最招黑的政治家》(Trumped: Inside The Greatest Political Upset of All Time,暂译)加入电影节展映片单。该片全程跟踪拍摄特朗普竞选过程,讲述了这位商业大亨如何成为美国“最招人讨厌的总统”。电影将于1月27日在圣丹斯电影节期间首映。


    Video
    ID                                       : 1
    Format                                   : AVC
    Format/Info                              : Advanced Video Codec
    Format profile                           : High@L4.1
    Format settings, CABAC                   : Yes
    Format settings, ReFrames                : 5 frames
    Codec ID                                 : V_MPEG4/ISO/AVC
    Duration                                 : 1h 41mn
    Bit rate                                 : 1 971 Kbps
    Width                                    : 1 280 pixels
    Height                                   : 720 pixels
    Display aspect ratio                     : 16:9
    Frame rate mode                          : Constant
    Frame rate                               : 23.976 (24000/1001) fps
    Color space                              : YUV
    Chroma subsampling                       : 4:2:0
    Bit depth                                : 8 bits
    Scan type                                : Progressive
    Bits/(Pixel*Frame)                       : 0.089
    Stream size                              : 1.40 GiB (84%)
    Writing library                          : x264 core 148 r2762 90a61ec
    Encoding settings                        : cabac=1 / ref=5 / deblock=1:0:0 / analyse=0x3:0x113 / me=hex / subme=8 / psy=1 / psy_rd=1.00:0.00 / mixed_ref=1 / me_range=16 / chroma_me=1 / trellis=2 / 8x8dct=1 / cqm=0 / deadzone=21,11 / fast_pskip=1 / chroma_qp_offset=-2 / threads=18 / lookahead_threads=3 / sliced_threads=0 / nr=0 / decimate=1 / interlaced=0 / bluray_compat=0 / constrained_intra=0 / bframes=3 / b_pyramid=2 / b_adapt=1 / b_bias=0 / direct=3 / weightb=1 / open_gop=0 / weightp=2 / keyint=250 / keyint_min=23 / scenecut=40 / intra_refresh=0 / rc_lookahead=50 / rc=crf / mbtree=1 / crf=20.0 / qcomp=0.60 / qpmin=0 / qpmax=69 / qpstep=4 / ip_ratio=1.40 / aq=1:1.00
    Default                                  : Yes
    Forced                                   : No

    Audio
    ID                                       : 2
    Format                                   : AC-3
    Format/Info                              : Audio Coding 3
    Mode extension                           : CM (complete main)
    Format settings, Endianness              : Big
    Codec ID                                 : A_AC3
    Duration                                 : 1h 41mn
    Bit rate mode                            : Constant
    Bit rate                                 : 384 Kbps
    Channel(s)                               : 6 channels
    Channel positions                        : Front: L C R, Side: L R, LFE
    Sampling rate                            : 48.0 KHz
    Frame rate                               : 31.250 fps (1536 spf)
    Compression mode                         : Lossy
    Stream size                              : 279 MiB (16%)
    Language                                 : English
    Default                                  : Yes
    Forced                                   : No

    Text
    ID                                       : 3
    Format                                   : UTF-8
    Codec ID                                 : S_TEXT/UTF8
    Codec ID/Info                            : UTF-8 Plain Text
    Duration                                 : 1h 41mn
    Bit rate                                 : 166 bps
    Count of elements                        : 2648
    Stream size                              : 124 KiB (0%)
    Language                                 : English
    Default                                  : No
    Forced                                   : No


    游客,如果您要查看本帖隐藏内容请回复

    本帖子中包含更多资源

    您需要 登录 才可以下载或查看,没有帐号?立即注册

    x
    回复

    使用道具 举报

  • TA的每日心情
    开心
    2017-2-23 22:29
  • 签到天数: 2 天

    [LV.1]初来乍到

    发表于 2017-2-20 08:08:31 | 显示全部楼层
    这部纪录片太好了
    回复 支持 反对

    使用道具 举报

  • TA的每日心情
    开心
    2017-2-24 20:39
  • 签到天数: 4 天

    [LV.2]偶尔看看I

    发表于 2017-2-22 21:30:22 | 显示全部楼层
    Thanks!  Thanks!  谢谢!
    回复 支持 反对

    使用道具 举报

  • TA的每日心情
    难过
    2017-6-4 16:31
  • 签到天数: 29 天

    [LV.4]偶尔看看III

    发表于 2017-2-24 08:37:06 | 显示全部楼层
    多谢楼主的慷慨无私分享!
    回复 支持 反对

    使用道具 举报

  • TA的每日心情
    无聊
    2017-4-11 08:11
  • 签到天数: 2 天

    [LV.1]初来乍到

    发表于 2017-4-3 11:15:13 | 显示全部楼层
    这个可以看看........
    回复 支持 反对

    使用道具 举报

    您需要登录后才可以回帖 登录 | 立即注册

    本版积分规则

    Archiver|手机版|小黑屋|时代影视论坛(NowYS小组) ( 宁ICP备16002180号-4 )

    GMT+8, 2017-6-26 13:13 , Processed in 0.144664 second(s), 13 queries , Gzip On, Memcache On.

    Powered by 时代影视 X3.2

    © 2001-2013 Comsenz Inc.

    快速回复 返回顶部 返回列表