时代影视论坛(NowYS)

 找回密码
 立即注册
搜索
查看: 115|回复: 0

[1080p] 地球全动力/地球机器 Earth.Machine.2011.Part2.1080p.BluRay.x264.DTS-FGT 6.4GB

[复制链接]
  • TA的每日心情
    开心
    3 天前
  • 签到天数: 128 天

    [LV.7]常住居民III

    发表于 2017-2-5 17:30:06 | 显示全部楼层 |阅读模式
    台湾UU


    ◎译  名 地球全动力/地球机器
    ◎片  名 Earth Machine
    ◎年  代 2011
    ◎国  家 英国
    ◎类  别 纪录片
    ◎语  言 英语
    ◎时代影视整理 http://www.sdy4.net
    ◎集  数 2

    ◎简  介

      我们的星球表面看起来似乎是静止的,但正如《地球机器》所揭示的,事实并非如此。每天至少发生50 次大地震和12 次大火山喷发,我们脚下的地球每秒钟都处在运动和变化之中。深入地球中心,探索地球心脏的引擎如何影响我们的生活;排干海水,揭开促使人类存在的秘密。《地球机器》说明了这样一个事实:不管我们是否意识到,地质学已成为我们生活的一个重要部分。这就是我们以前所没有认识到的地球。

    Video
    ID                                       : 1
    Format                                   : AVC
    Format/Info                              : Advanced Video Codec
    Format profile                           : [email protected]
    Format settings, CABAC                   : Yes
    Format settings, ReFrames                : 4 frames
    Codec ID                                 : V_MPEG4/ISO/AVC
    Duration                                 : 48mn 53s
    Bit rate                                 : 17.5 Mbps
    Width                                    : 1 920 pixels
    Height                                   : 1 080 pixels
    Display aspect ratio                     : 16:9
    Frame rate mode                          : Constant
    Frame rate                               : 25.000 fps
    Color space                              : YUV
    Chroma subsampling                       : 4:2:0
    Bit depth                                : 8 bits
    Scan type                                : Progressive
    Bits/(Pixel*Frame)                       : 0.338
    Stream size                              : 5.85 GiB (90%)
    Writing library                          : x264 core 140 r2377 1ca7bb9
    Encoding settings                        : cabac=1 / ref=4 / deblock=1:-1:-1 / analyse=0x3:0x133 / me=umh / subme=7 / psy=1 / psy_rd=1.00:0.15 / mixed_ref=1 / me_range=32 / chroma_me=1 / trellis=2 / 8x8dct=1 / cqm=0 / deadzone=21,11 / fast_pskip=1 / chroma_qp_offset=-3 / threads=8 / lookahead_threads=1 / sliced_threads=0 / nr=0 / decimate=0 / interlaced=0 / bluray_compat=0 / constrained_intra=0 / bframes=3 / b_pyramid=2 / b_adapt=2 / b_bias=0 / direct=3 / weightb=1 / open_gop=0 / weightp=2 / keyint=250 / keyint_min=25 / scenecut=40 / intra_refresh=0 / rc_lookahead=40 / rc=2pass / mbtree=1 / bitrate=17500 / ratetol=1.0 / qcomp=0.60 / qpmin=10 / qpmax=51 / qpstep=4 / cplxblur=20.0 / qblur=0.5 / vbv_maxrate=62500 / vbv_bufsize=78125 / nal_hrd=none / filler=0 / ip_ratio=1.40 / aq=1:1.00
    Language                                 : English
    Default                                  : Yes
    Forced                                   : Yes

    Audio
    ID                                       : 2
    Format                                   : DTS
    Format/Info                              : Digital Theater Systems
    Mode                                     : 16
    Format settings, Endianness              : Big
    Codec ID                                 : A_DTS
    Duration                                 : 48mn 53s
    Bit rate mode                            : Constant
    Bit rate                                 : 1 509 Kbps
    Channel(s)                               : 2 channels
    Channel positions                        : Front: L R
    Sampling rate                            : 48.0 KHz
    Frame rate                               : 93.750 fps (512 spf)
    Bit depth                                : 16 bits
    Compression mode                         : Lossy
    Stream size                              : 528 MiB (8%)
    Language                                 : English
    Default                                  : Yes
    Forced                                   : No

    Menu
    00:00:00.000                             : :Chapter 01
    00:10:22.000                             : :Chapter 02
    00:22:03.000                             : :Chapter 03
    00:30:44.000                             : :Chapter 04
    00:39:32.000                             : :Chapter 05
    00:48:52.080                             : :Chapter 06







    游客,如果您要查看本帖隐藏内容请回复

    本帖子中包含更多资源

    您需要 登录 才可以下载或查看,没有帐号?立即注册

    x
    回复

    使用道具 举报

    您需要登录后才可以回帖 登录 | 立即注册

    本版积分规则

    Archiver|手机版|小黑屋|时代影视论坛(NowYS小组) ( 宁ICP备16002180号-4 )

    GMT+8, 2017-4-28 14:15 , Processed in 0.110235 second(s), 14 queries , Gzip On, Memcache On.

    Powered by 时代影视 X3.2

    © 2001-2013 Comsenz Inc.

    快速回复 返回顶部 返回列表