时代影视论坛(NowYS)

 找回密码
 立即注册
搜索
查看: 98|回复: 0

[WEBRip] From.Bedrooms.to.Billions.2016.1080p.WEBRip.AAC2.0.x264-FGT 4.9GB

[复制链接]
  • TA的每日心情
    开心
    5 天前
  • 签到天数: 153 天

    [LV.7]常住居民III

    发表于 2017-2-5 21:54:53 | 显示全部楼层 |阅读模式
    台湾UU


    ◎译  名 
    ◎片  名 From Bedrooms to Billions: The Amiga Years!
    ◎年  代 2016
    ◎国  家 英国
    ◎类  别 纪录片
    ◎语  言 英语
    ◎上映日期 2016-05-19(英国)
    ◎IMDb评分  8.0/10 from 86 users
    ◎IMDb链接  http://www.imdb.com/title/tt4603210/
    ◎时代影视整理 http://www.sdy4.net
    ◎片  长 152分钟
    ◎导  演 Anthony Caulfield / Nicola Caulfield
    ◎主  演 Shahid Ahmed
          Rich Alpin
          Brian Bagnall
          Kellyn Beeck
          Allister Brimble
          Martyn Brown
          Stoo Cambridge
          Eric Chahi
          Sean Cooper
          Glenn Corpes
          Paul Cuisset
          John Cutter
          Mike Dailly
          Joe Decuir
          Mevlut Dinc

    ◎简  介

      How the Commodore Amiga helped influence a generation of Developers to take Video Gaming to a whole new level.


    Video
    ID                                       : 1
    Format                                   : AVC
    Format/Info                              : Advanced Video Codec
    Format profile                           : High@L4
    Format settings, CABAC                   : Yes
    Format settings, ReFrames                : 4 frames
    Codec ID                                 : avc1
    Codec ID/Info                            : Advanced Video Coding
    Duration                                 : 2h 31mn
    Bit rate                                 : 4 375 Kbps
    Width                                    : 1 920 pixels
    Height                                   : 1 080 pixels
    Display aspect ratio                     : 16:9
    Frame rate mode                          : Constant
    Frame rate                               : 25.000 fps
    Color space                              : YUV
    Chroma subsampling                       : 4:2:0
    Bit depth                                : 8 bits
    Scan type                                : Progressive
    Bits/(Pixel*Frame)                       : 0.084
    Stream size                              : 4.64 GiB (94%)
    Writing library                          : x264 core 148 r10 3b70645
    Encoding settings                        : cabac=1 / ref=4 / deblock=1:0:0 / analyse=0x3:0x113 / me=umh / subme=8 / psy=1 / psy_rd=1.00:0.00 / mixed_ref=1 / me_range=16 / chroma_me=1 / trellis=1 / 8x8dct=1 / cqm=0 / deadzone=21,11 / fast_pskip=1 / chroma_qp_offset=-2 / threads=34 / lookahead_threads=5 / sliced_threads=0 / nr=0 / decimate=1 / interlaced=0 / bluray_compat=0 / stitchable=1 / constrained_intra=0 / bframes=3 / b_pyramid=2 / b_adapt=2 / b_bias=0 / direct=3 / weightb=1 / open_gop=0 / weightp=2 / keyint=infinite / keyint_min=25 / scenecut=40 / intra_refresh=0 / rc_lookahead=50 / rc=crf / mbtree=1 / crf=20.0 / qcomp=0.60 / qpmin=5 / qpmax=69 / qpstep=4 / vbv_maxrate=4950 / vbv_bufsize=13500 / crf_max=0.0 / nal_hrd=none / filler=0 / ip_ratio=1.40 / aq=1:1.00
    Encoded date                             : UTC 2016-05-17 16:04:08
    Tagged date                              : UTC 2016-05-17 16:04:08
    Color range                              : Limited
    Color primaries                          : BT.709
    Transfer characteristics                 : BT.709
    Matrix coefficients                      : BT.709

    Audio
    ID                                       : 2
    Format                                   : AAC
    Format/Info                              : Advanced Audio Codec
    Format profile                           : LC
    Codec ID                                 : 40
    Duration                                 : 2h 31mn
    Bit rate mode                            : Variable
    Bit rate                                 : 256 Kbps
    Channel(s)                               : 2 channels
    Channel positions                        : Front: L R
    Sampling rate                            : 48.0 KHz
    Frame rate                               : 46.875 fps (1024 spf)
    Compression mode                         : Lossy
    Stream size                              : 278 MiB (6%)
    Encoded date                             : UTC 2016-05-17 16:04:08
    Tagged date                              : UTC 2016-05-17 16:04:08

    游客,如果您要查看本帖隐藏内容请回复

    本帖子中包含更多资源

    您需要 登录 才可以下载或查看,没有帐号?立即注册

    x
    回复

    使用道具 举报

    您需要登录后才可以回帖 登录 | 立即注册

    本版积分规则

    Archiver|手机版|小黑屋|时代影视论坛(NowYS小组) ( 宁ICP备16002180号-4 )

    GMT+8, 2017-8-23 10:33 , Processed in 0.120522 second(s), 13 queries , Gzip On, Memcache On.

    Powered by 时代影视 X3.2

    © 2001-2013 Comsenz Inc.

    快速回复 返回顶部 返回列表