时代影视论坛(NowYS)

 找回密码
 立即注册
搜索
查看: 252|回复: 0

[Remux] 黑暗正义联盟 Justice.League.Dark.2017.1080p.BluRay.REMUX.AVC.DTS-HD.MA.5.1-FGT 12.67GB

[复制链接]
  • TA的每日心情
    郁闷
    7 天前
  • 签到天数: 155 天

    [LV.7]常住居民III

    发表于 2017-2-5 22:13:00 | 显示全部楼层 |阅读模式
    台湾UU


    ◎译  名 黑暗正义联盟
    ◎片  名 Justice League Dark
    ◎年  代 2017
    ◎国  家 美国
    ◎类  别 动画/奇幻
    ◎语  言 英语
    ◎上映日期 2017-02-07(美国)/2017-01-24(数字版)
    ◎IMDb评分  7.9/10 from 123 users
    ◎IMDb链接  http://www.imdb.com/title/tt2494376/
    ◎豆瓣评分 7.8/10 from 47 users
    ◎豆瓣链接 https://movie.douban.com/subject/26277361/
    ◎时代影视整理 http://www.sdy4.net
    ◎片  长 75分钟
    ◎导  演 杰伊·欧力瓦 Jay Oliva
    ◎主  演 马特·瑞安 Matt Ryan
          卡米拉·卢丁顿 Camilla Luddington
          杰森·奥玛拉 Jason O'Mara
          尼古拉斯·特图罗 Nicholas Turturro
          迪·布拉雷·贝克尔 Dee Bradley Baker
          弗莱德·塔他斯西奥 Fred Tatasciore
          Ray Chase

    ◎简  介

      It's official: "Justice League Dark" is going to become an animated film. At the "Batman: The Killing Joke" premiere at Comic-Con International in San Diego, Gary Miereanu named three new DC Comics animated films, including "Justice League Dark."

    Video
    ID                                       : 1
    Format                                   : AVC
    Format/Info                              : Advanced Video Codec
    Format profile                           : High@L4.1
    Format settings, CABAC                   : Yes
    Format settings, ReFrames                : 4 frames
    Format settings, GOP                     : M=1, N=12
    Codec ID                                 : V_MPEG4/ISO/AVC
    Duration                                 : 1h 15mn
    Bit rate mode                            : Variable
    Maximum bit rate                         : 30.0 Mbps
    Width                                    : 1 920 pixels
    Height                                   : 1 080 pixels
    Display aspect ratio                     : 16:9
    Frame rate mode                          : Constant
    Frame rate                               : 23.976 (24000/1001) fps
    Color space                              : YUV
    Chroma subsampling                       : 4:2:0
    Bit depth                                : 8 bits
    Scan type                                : Progressive
    Title                                    : Justice.League.Dark.2017.1080p.BluRay.REMUX.AVC.DTS-HD.MA.5.1-FGT
    Language                                 : English
    Default                                  : No
    Forced                                   : No

    Audio #1
    ID                                       : 2
    Format                                   : DTS
    Format/Info                              : Digital Theater Systems
    Format profile                           : MA / Core
    Mode                                     : 16
    Format settings, Endianness              : Big
    Codec ID                                 : A_DTS
    Duration                                 : 1h 15mn
    Bit rate mode                            : Variable / Constant
    Bit rate                                 : Unknown / 1 509 Kbps
    Channel(s)                               : 6 channels
    Channel positions                        : Front: L C R, Side: L R, LFE
    Sampling rate                            : 48.0 KHz
    Frame rate                               : 93.750 fps (512 spf)
    Bit depth                                : 24 bits
    Compression mode                         : Lossless / Lossy
    Title                                    : Justice.League.Dark.2017.1080p.BluRay.REMUX.AVC.DTS-HD.MA.5.1-FGT
    Language                                 : English
    Default                                  : Yes
    Forced                                   : No

    Audio #2
    ID                                       : 3
    Format                                   : DTS
    Format/Info                              : Digital Theater Systems
    Mode                                     : 16
    Format settings, Endianness              : Big
    Codec ID                                 : A_DTS
    Duration                                 : 1h 15mn
    Bit rate mode                            : Constant
    Bit rate                                 : 1 509 Kbps
    Channel(s)                               : 6 channels
    Channel positions                        : Front: L C R, Side: L R, LFE
    Sampling rate                            : 48.0 KHz
    Frame rate                               : 93.750 fps (512 spf)
    Bit depth                                : 24 bits
    Compression mode                         : Lossy
    Stream size                              : 819 MiB (6%)
    Title                                    : Justice.League.Dark.2017.1080p.BluRay.REMUX.AVC.DTS-HD.MA.5.1-FGT
    Language                                 : English
    Default                                  : No
    Forced                                   : No

    Audio #3
    ID                                       : 4
    Format                                   : AC-3
    Format/Info                              : Audio Coding 3
    Mode extension                           : CM (complete main)
    Format settings, Endianness              : Big
    Codec ID                                 : A_AC3
    Duration                                 : 1h 15mn
    Bit rate mode                            : Constant
    Bit rate                                 : 640 Kbps
    Channel(s)                               : 6 channels
    Channel positions                        : Front: L C R, Side: L R, LFE
    Sampling rate                            : 48.0 KHz
    Frame rate                               : 31.250 fps (1536 spf)
    Compression mode                         : Lossy
    Stream size                              : 347 MiB (3%)
    Title                                    : Justice.League.Dark.2017.1080p.BluRay.REMUX.AVC.DTS-HD.MA.5.1-FGT
    Language                                 : French
    Default                                  : No
    Forced                                   : No

    Audio #4
    ID                                       : 5
    Format                                   : AC-3
    Format/Info                              : Audio Coding 3
    Mode extension                           : CM (complete main)
    Format settings, Endianness              : Big
    Codec ID                                 : A_AC3
    Duration                                 : 1h 15mn
    Bit rate mode                            : Constant
    Bit rate                                 : 640 Kbps
    Channel(s)                               : 6 channels
    Channel positions                        : Front: L C R, Side: L R, LFE
    Sampling rate                            : 48.0 KHz
    Frame rate                               : 31.250 fps (1536 spf)
    Compression mode                         : Lossy
    Stream size                              : 347 MiB (3%)
    Title                                    : Justice.League.Dark.2017.1080p.BluRay.REMUX.AVC.DTS-HD.MA.5.1-FGT
    Language                                 : German
    Default                                  : No
    Forced                                   : No

    Audio #5
    ID                                       : 6
    Format                                   : AC-3
    Format/Info                              : Audio Coding 3
    Format profile                           : Dolby Digital
    Mode extension                           : CM (complete main)
    Format settings, Endianness              : Big
    Codec ID                                 : A_AC3
    Duration                                 : 1h 15mn
    Bit rate mode                            : Constant
    Bit rate                                 : 192 Kbps
    Channel(s)                               : 2 channels
    Channel positions                        : Front: L R
    Sampling rate                            : 48.0 KHz
    Frame rate                               : 31.250 fps (1536 spf)
    Compression mode                         : Lossy
    Stream size                              : 104 MiB (1%)
    Title                                    : Justice.League.Dark.2017.1080p.BluRay.REMUX.AVC.DTS-HD.MA.5.1-FGT
    Language                                 : Spanish
    Default                                  : No
    Forced                                   : No

    Audio #6
    ID                                       : 7
    Format                                   : AC-3
    Format/Info                              : Audio Coding 3
    Mode extension                           : CM (complete main)
    Format settings, Endianness              : Big
    Codec ID                                 : A_AC3
    Duration                                 : 1h 15mn
    Bit rate mode                            : Constant
    Bit rate                                 : 640 Kbps
    Channel(s)                               : 6 channels
    Channel positions                        : Front: L C R, Side: L R, LFE
    Sampling rate                            : 48.0 KHz
    Frame rate                               : 31.250 fps (1536 spf)
    Compression mode                         : Lossy
    Stream size                              : 347 MiB (3%)
    Title                                    : Justice.League.Dark.2017.1080p.BluRay.REMUX.AVC.DTS-HD.MA.5.1-FGT
    Language                                 : Spanish
    Default                                  : No
    Forced                                   : No

    Audio #7
    ID                                       : 8
    Format                                   : AC-3
    Format/Info                              : Audio Coding 3
    Mode extension                           : CM (complete main)
    Format settings, Endianness              : Big
    Codec ID                                 : A_AC3
    Duration                                 : 1h 15mn
    Bit rate mode                            : Constant
    Bit rate                                 : 640 Kbps
    Channel(s)                               : 6 channels
    Channel positions                        : Front: L C R, Side: L R, LFE
    Sampling rate                            : 48.0 KHz
    Frame rate                               : 31.250 fps (1536 spf)
    Compression mode                         : Lossy
    Stream size                              : 347 MiB (3%)
    Title                                    : Justice.League.Dark.2017.1080p.BluRay.REMUX.AVC.DTS-HD.MA.5.1-FGT
    Language                                 : Portuguese
    Default                                  : No
    Forced                                   : No

    Text #1
    ID                                       : 9
    Format                                   : PGS
    Muxing mode                              : zlib
    Codec ID                                 : S_HDMV/PGS
    Codec ID/Info                            : Picture based subtitle format used on BDs/HD-DVDs
    Title                                    : English-PGS
    Language                                 : English
    Default                                  : No
    Forced                                   : No

    Text #2
    ID                                       : 10
    Format                                   : PGS
    Muxing mode                              : zlib
    Codec ID                                 : S_HDMV/PGS
    Codec ID/Info                            : Picture based subtitle format used on BDs/HD-DVDs
    Title                                    : French-PGS
    Language                                 : French
    Default                                  : No
    Forced                                   : No

    Text #3
    ID                                       : 11
    Format                                   : PGS
    Muxing mode                              : zlib
    Codec ID                                 : S_HDMV/PGS
    Codec ID/Info                            : Picture based subtitle format used on BDs/HD-DVDs
    Title                                    : German-PGS
    Language                                 : German
    Default                                  : No
    Forced                                   : No

    Text #4
    ID                                       : 12
    Format                                   : PGS
    Muxing mode                              : zlib
    Codec ID                                 : S_HDMV/PGS
    Codec ID/Info                            : Picture based subtitle format used on BDs/HD-DVDs
    Title                                    : Spanish-PGS
    Language                                 : Spanish
    Default                                  : No
    Forced                                   : No

    Text #5
    ID                                       : 13
    Format                                   : PGS
    Muxing mode                              : zlib
    Codec ID                                 : S_HDMV/PGS
    Codec ID/Info                            : Picture based subtitle format used on BDs/HD-DVDs
    Title                                    : Spanish-FORCED-PGS
    Language                                 : Spanish
    Default                                  : No
    Forced                                   : No

    Text #6
    ID                                       : 14
    Format                                   : PGS
    Muxing mode                              : zlib
    Codec ID                                 : S_HDMV/PGS
    Codec ID/Info                            : Picture based subtitle format used on BDs/HD-DVDs
    Title                                    : Portuguese-PGS
    Language                                 : Portuguese
    Default                                  : No
    Forced                                   : No

    Text #7
    ID                                       : 15
    Format                                   : PGS
    Muxing mode                              : zlib
    Codec ID                                 : S_HDMV/PGS
    Codec ID/Info                            : Picture based subtitle format used on BDs/HD-DVDs
    Title                                    : Danish-PGS
    Language                                 : Danish
    Default                                  : No
    Forced                                   : No

    Text #8
    ID                                       : 16
    Format                                   : PGS
    Muxing mode                              : zlib
    Codec ID                                 : S_HDMV/PGS
    Codec ID/Info                            : Picture based subtitle format used on BDs/HD-DVDs
    Title                                    : Finnish-PGS
    Language                                 : Finnish
    Default                                  : No
    Forced                                   : No

    Text #9
    ID                                       : 17
    Format                                   : PGS
    Muxing mode                              : zlib
    Codec ID                                 : S_HDMV/PGS
    Codec ID/Info                            : Picture based subtitle format used on BDs/HD-DVDs
    Title                                    : Norwegian-PGS
    Language                                 : Norwegian
    Default                                  : No
    Forced                                   : No

    Text #10
    ID                                       : 18
    Format                                   : PGS
    Muxing mode                              : zlib
    Codec ID                                 : S_HDMV/PGS
    Codec ID/Info                            : Picture based subtitle format used on BDs/HD-DVDs
    Title                                    : Swedish-PGS
    Language                                 : Swedish
    Default                                  : No
    Forced                                   : No

    Text #11
    ID                                       : 19
    Format                                   : PGS
    Muxing mode                              : zlib
    Codec ID                                 : S_HDMV/PGS
    Codec ID/Info                            : Picture based subtitle format used on BDs/HD-DVDs
    Title                                    : French-PGS
    Language                                 : French
    Default                                  : No
    Forced                                   : No

    Text #12
    ID                                       : 20
    Format                                   : PGS
    Muxing mode                              : zlib
    Codec ID                                 : S_HDMV/PGS
    Codec ID/Info                            : Picture based subtitle format used on BDs/HD-DVDs
    Title                                    : German-PGS
    Language                                 : German
    Default                                  : No
    Forced                                   : No

    Menu
    00:00:00.000                             : en:Chapter 01
    00:12:59.069                             : en:Chapter 02
    00:22:23.925                             : en:Chapter 03
    00:33:16.953                             : en:Chapter 04
    00:42:14.448                             : en:Chapter 05
    00:54:19.965                             : en:Chapter 06
    01:04:17.770                             : en:Chapter 07
    01:12:34.141                             : en:Chapter 08

    游客,如果您要查看本帖隐藏内容请回复

    本帖子中包含更多资源

    您需要 登录 才可以下载或查看,没有帐号?立即注册

    x
    回复

    使用道具 举报

    您需要登录后才可以回帖 登录 | 立即注册

    本版积分规则

    Archiver|手机版|小黑屋|时代影视论坛(NowYS小组) ( 宁ICP备16002180号-4 )

    GMT+8, 2017-9-21 14:53 , Processed in 0.167539 second(s), 14 queries , Gzip On, Memcache On.

    Powered by 时代影视 X3.2

    © 2001-2013 Comsenz Inc.

    快速回复 返回顶部 返回列表