时代影视论坛(NowYS)

 找回密码
 立即注册
搜索
查看: 148|回复: 6

[1080p] 奇异博士/斯特兰奇博士Doctor.Strange.2016.1080p.HDRip.X264.AC3-EVO 3.59G

[复制链接]
 成长值: 555
  • TA的每日心情
    开心
    11 小时前
  • 签到天数: 70 天

    [LV.6]常住居民II

    发表于 2017-2-11 13:13:58 | 显示全部楼层 |阅读模式
    台湾UU



    ◎译  名 奇异博士/斯特兰奇博士/史特兰奇博士/奇怪博士/怪奇医生/奇异医生/史奇医生
    ◎片  名 Doctor Strange
    ◎年  代 2016
    ◎国  家 美国
    ◎类  别 动作/科幻/奇幻/冒险
    ◎语  言 英语
    ◎上映日期 2016-10-25(英国)/2016-11-04(中国大陆/美国)
    ◎IMDb评分  7.8/10 from 192,189 users
    ◎IMDb链接  http://www.imdb.com/title/tt1211837/
    ◎豆瓣评分 7.8/10 from 178,307 users
    ◎豆瓣链接 https://movie.douban.com/subject/3025375/
    ◎片  长 115分钟
    ◎导  演 斯科特·德瑞克森 Scott Derrickson
    ◎主  演 本尼迪克特·康伯巴奇 Benedict Cumberbatch
          蒂尔达·斯文顿 Tilda Swinton
          麦斯·米科尔森 Mads Mikkelsen
          切瓦特·埃加福特 Chiwetel Ejiofor
          瑞秋·麦克亚当斯 Rachel McAdams
          迈克尔·斯图巴 Michael Stuhlbarg
          本尼迪克特·王 Benedict Wong
          本杰明·布拉特 Benjamin Bratt
          斯科特·阿金斯 Scott Adkins
          莎拉·费希恩 Zara Phythian
          阿拉·萨菲 Alaa Safi

    ◎简  介

      斯特兰奇博士(本尼迪克特·康伯巴奇 Benedict Cumberbatch 饰)是一名外科手术医生,他拥有着高超的智商和精湛的技艺,是医院乃至整个医学界的传奇人物。某一日,斯特兰奇博士遭遇了一场可怕的车祸,尽管保住了双 手,但这双手伤痕累累不住颤抖,这也就意味着,他再也不能拿起手术刀,站在无影灯下了。
      斯特兰奇博士的生活就此失去了意义陷入了绝望之中,他决定远赴尼泊尔,寻找传说中能够治愈他双手的神秘力量。在尼泊尔,风尘仆仆的斯特兰奇博士拜入了 神秘的古一法师(蒂尔达·斯文顿 Tilda Swinton 饰)门下,成为了其弟子,与此同时,古一法师曾经的弟子卡西利亚斯(麦斯·米科尔森 饰)亦在虎视眈眈,企图完成他获得永生的大业。

    ◎获奖情况

      第89届奥斯卡金像奖  (2017)
      最佳视觉效果(提名)

      第70届英国电影学院奖  (2017)
      电影奖 最佳化妆/发型(提名)
      电影奖 最佳艺术指导(提名)
      电影奖 最佳特殊视觉效果(提名)

      第44届动画安妮奖  (2017)
      最佳真人电影动画效果

      第23届美国演员工会奖  (2017)
      电影最佳特技群像(提名)

      第21届美国艺术指导工会奖  (2017)
      电影奖 最佳幻想电影艺术指导(提名)

      第15届美国视觉效果协会奖  (2017)
      最佳特效电影视觉效果(提名)
      最佳真人电影CG背景
      最佳电影虚拟摄影(提名)
      最佳真人电影模拟动画效果(提名)
      最佳电影视觉效果合成(提名)

      第22届美国评论家选择电影奖  (2016)
      最佳化妆(提名)
      最佳视觉效果(提名)
      最佳动作片(提名)
      动作片最佳男主角(提名) 本尼迪克特·康伯巴奇
      动作片最佳女主角(提名) 蒂尔达·斯文顿
      最佳科幻/恐怖片(提名)

      第20届好莱坞电影奖  (2016)
      年度视觉效果
    RELEASE: Doctor.Strange.2016.1080p.HDRip.X264.AC3-EVO                                          

    SOURCE: VOD - Thanks friend!                                              

    ViDEO: 4800 Kbps (L4.1@High)              

    RESOLUTiON: 1920x800                        

    RUNTiME: 1h51m33sec (25 fps)     

    SUBTiTLES: No.                              

    AUDiO: 192 CBR AC-3 2.0      

    LANGUAGE: ENGLiSH                                    

    GREETS: Srkfan & AQOS

    NOTES: Complete. No cuts. No subtitles. Enjoy.

    EXTRA NOTES: The reason why the length of the movie is at 1h51, instead of the 1h55m
                happens because of the framerate being at 25 fps. The movie is complete.



    General
    Complete name                            : Doctor.Strange.2016.1080p.HDRip.X264.AC3-EVO.mkv
    Format                                   : Matroska
    Format version                           : Version 4 / Version 2
    File size                                : 3.59 GiB
    Duration                                 : 1h 50mn
    Overall bit rate                         : 4 661 Kbps
    Movie name                               : EVO
    Encoded date                             : UTC 2017-02-10 17:27:46
    Writing application                      : mkvmerge v6.7.0 (‘Back to the Ground‘) 64bit built on Jan  8 2014 15:10:52
    Writing library                          : libebml v1.3.0 + libmatroska v1.4.1

    Video
    ID                                       : 1
    Format                                   : AVC
    Format/Info                              : Advanced Video Codec
    Format profile                           : High@L4.1
    Format settings, CABAC                   : Yes
    Format settings, ReFrames                : 4 frames
    Format settings, GOP                     : M=1, N=3
    Codec ID                                 : V_MPEG4/ISO/AVC
    Duration                                 : 1h 50mn
    Bit rate                                 : 4 376 Kbps
    Width                                    : 1 920 pixels
    Height                                   : 800 pixels
    Display aspect ratio                     : 2.40:1
    Frame rate                               : 25.000 fps
    Color space                              : YUV
    Chroma subsampling                       : 4:2:0
    Bit depth                                : 8 bits
    Scan type                                : Progressive
    Bits/(Pixel*Frame)                       : 0.114
    Stream size                              : 3.37 GiB (94%)
    Default                                  : Yes
    Forced                                   : No
    Color primaries                          : BT.709-5, BT.1361, IEC 61966-2-4, SMPTE RP177
    Transfer characteristics                 : BT.709-5, BT.1361
    Matrix coefficients                      : BT.709-5, BT.1361, IEC 61966-2-4 709, SMPTE RP177

    Audio
    ID                                       : 2
    Format                                   : AC-3
    Format/Info                              : Audio Coding 3
    Mode extension                           : CM (complete main)
    Codec ID                                 : A_AC3
    Duration                                 : 1h 50mn
    Bit rate mode                            : Constant
    Bit rate                                 : 192 Kbps
    Channel(s)                               : 2 channels
    Channel positions                        : Front: L R
    Sampling rate                            : 48.0 KHz
    Bit depth                                : 16 bits
    Compression mode                         : Lossy
    Delay relative to video                  : 64ms
    Stream size                              : 152 MiB (4%)
    Title                                    : Stereo
    Language                                 : English
    Default                                  : Yes
    Forced                                   : No
    游客,如果您要查看本帖隐藏内容请回复

    本帖子中包含更多资源

    您需要 登录 才可以下载或查看,没有帐号?立即注册

    x
    回复

    使用道具 举报

  • TA的每日心情
    开心
    昨天 21:00
  • 签到天数: 16 天

    [LV.4]偶尔看看III

    发表于 2017-2-11 21:31:31 | 显示全部楼层
    good thank you very much
    回复 支持 反对

    使用道具 举报

  • TA的每日心情
    慵懒
    昨天 21:16
  • 签到天数: 16 天

    [LV.4]偶尔看看III

    发表于 2017-2-12 00:28:24 | 显示全部楼层
    不知道有没有内封字幕,感谢分享
    回复 支持 反对

    使用道具 举报

  • TA的每日心情
    无聊
    前天 12:00
  • 签到天数: 6 天

    [LV.2]偶尔看看I

    发表于 2017-2-12 12:20:41 | 显示全部楼层
    卷毛福看看看
    回复 支持 反对

    使用道具 举报

  • TA的每日心情
    郁闷
    昨天 12:56
  • 签到天数: 5 天

    [LV.2]偶尔看看I

    发表于 2017-2-12 22:28:06 | 显示全部楼层
    稀饭啊,谢谢
    回复 支持 反对

    使用道具 举报

  • TA的每日心情
    无聊
    前天 10:39
  • 签到天数: 6 天

    [LV.2]偶尔看看I

    发表于 2017-2-13 11:19:26 | 显示全部楼层
    感谢分享11111111
    回复 支持 反对

    使用道具 举报

  • TA的每日心情
    开心
    3 小时前
  • 签到天数: 6 天

    [LV.2]偶尔看看I

    发表于 5 天前 | 显示全部楼层
    看起来不错
    回复 支持 反对

    使用道具 举报

    您需要登录后才可以回帖 登录 | 立即注册

    本版积分规则

    Archiver|手机版|小黑屋|时代影视论坛(NowYS小组) ( 宁ICP备16002180号-4 )

    GMT+8, 2017-2-21 11:10 , Processed in 0.188901 second(s), 13 queries , Gzip On, Memcache On.

    Powered by 时代影视 X3.2

    © 2001-2013 Comsenz Inc.

    快速回复 返回顶部 返回列表