时代影视论坛(NowYS)

 找回密码
 立即注册
搜索
查看: 226|回复: 0

[WEBRip] 吉姆:詹姆斯·弗利传 Jim.The.James.Foley.Story.2016.720p.WEB-DL.DD5.1.H264-FGT 3.5GB

[复制链接]
  • TA的每日心情
    郁闷
    昨天 12:08
  • 签到天数: 163 天

    [LV.7]常住居民III

    发表于 2017-2-13 16:50:02 | 显示全部楼层 |阅读模式
    台湾UU


    ◎译  名 吉姆:詹姆斯·弗利传
    ◎片  名 Jim: The James Foley Story
    ◎年  代 2016
    ◎国  家 美国
    ◎类  别 纪录片
    ◎上映日期 2016-01-19
    ◎IMDb评分  7.9/10 from 637 users
    ◎IMDb链接  http://www.imdb.com/title/tt5278466/
    ◎豆瓣评分 8.2/10 from 10 users
    ◎豆瓣链接 https://movie.douban.com/subject/26679119/
    ◎时代影视整理 http://www.sdy4.net
    ◎片  长 113分钟
    ◎导  演 Brian Oakes
    ◎主  演 Diane Foley
          James Foley
          John Foley
          Michael D. Joseph

    ◎简  介

      The public execution of American conflict journalist James Foley captured the world’s attention, but he was more than just a man in an orange jumpsuit. Seen through the lens of his close childhood friend, Jim moves from adrenaline-fueled front lines and devastated neighborhoods of Syria into the hands of ISIS. World Premiere

    ◎获奖情况

      第89届奥斯卡金像奖  (2017)
      最佳原创歌曲(提名)

      第32届圣丹斯电影节  (2016)
      评审团大奖 纪录片(提名)

    Video
    ID                                       : 1
    Format                                   : AVC
    Format/Info                              : Advanced Video Codec
    Format profile                           : High@L3.1
    Format settings, CABAC                   : No
    Format settings, ReFrames                : 2 frames
    Codec ID                                 : V_MPEG4/ISO/AVC
    Duration                                 : 1h 51mn
    Bit rate                                 : 4 014 Kbps
    Width                                    : 1 280 pixels
    Height                                   : 692 pixels
    Display aspect ratio                     : 1.85:1
    Frame rate mode                          : Constant
    Frame rate                               : 23.976 fps
    Color space                              : YUV
    Chroma subsampling                       : 4:2:0
    Bit depth                                : 8 bits
    Scan type                                : Progressive
    Bits/(Pixel*Frame)                       : 0.189
    Stream size                              : 3.13 GiB (89%)
    Title                                    : Jim.The.James.Foley.Story.2016.720p.WEB-DL.DD5.1.H264-FGT
    Language                                 : English
    Default                                  : Yes
    Forced                                   : No
    Color range                              : Limited
    Color primaries                          : BT.709
    Transfer characteristics                 : BT.709
    Matrix coefficients                      : BT.709

    Audio
    ID                                       : 2
    Format                                   : AC-3
    Format/Info                              : Audio Coding 3
    Mode extension                           : CM (complete main)
    Format settings, Endianness              : Big
    Codec ID                                 : A_AC3
    Duration                                 : 1h 51mn
    Bit rate mode                            : Constant
    Bit rate                                 : 384 Kbps
    Channel(s)                               : 6 channels
    Channel positions                        : Front: L C R, Side: L R, LFE
    Sampling rate                            : 48.0 KHz
    Frame rate                               : 31.250 fps (1536 spf)
    Compression mode                         : Lossy
    Stream size                              : 307 MiB (9%)
    Title                                    : Jim.The.James.Foley.Story.2016.720p.WEB-DL.DD5.1.H264-FGT
    Language                                 : English
    Default                                  : Yes
    Forced                                   : No

    Text
    ID                                       : 3
    Format                                   : UTF-8
    Codec ID                                 : S_TEXT/UTF8
    Codec ID/Info                            : UTF-8 Plain Text
    Language                                 : English
    Default                                  : Yes
    Forced                                   : No

    Menu
    00:00:00.000                             : en:Chapter 1
    00:07:10.000                             : en:Chapter 2
    00:15:47.000                             : en:Chapter 3
    00:25:17.000                             : en:Chapter 4
    00:32:19.000                             : en:Chapter 5
    00:41:15.000                             : en:Chapter 6
    00:48:30.000                             : en:Chapter 7
    00:55:20.000                             : en:Chapter 8
    01:02:56.000                             : en:Chapter 9
    01:12:22.000                             : en:Chapter 10
    01:21:31.000                             : en:Chapter 11
    01:31:32.000                             : en:Chapter 12
    01:41:00.000                             : en:Chapter 13
    01:47:57.000                             : en:Chapter 14

    游客,如果您要查看本帖隐藏内容请回复

    本帖子中包含更多资源

    您需要 登录 才可以下载或查看,没有帐号?立即注册

    x
    回复

    使用道具 举报

    您需要登录后才可以回帖 登录 | 立即注册

    本版积分规则

    Archiver|手机版|小黑屋|时代影视论坛(NowYS小组) ( 宁ICP备16002180号-4 )

    GMT+8, 2017-10-17 21:01 , Processed in 0.160583 second(s), 15 queries , Gzip On, Memcache On.

    Powered by 时代影视 X3.2

    © 2001-2013 Comsenz Inc.

    快速回复 返回顶部 返回列表