时代影视论坛(NowYS)

 找回密码
 立即注册
搜索
查看: 199|回复: 0

[欧美] 王蛇帝国 King.Cobra.2016.1080p.BluRay.REMUX.AVC.DTS-HD.MA.5.1-FGT 24.8GB

[复制链接]
  • TA的每日心情
    开心
    5 天前
  • 签到天数: 153 天

    [LV.7]常住居民III

    发表于 2017-2-17 22:39:55 | 显示全部楼层 |阅读模式
    台湾UU


    ◎译  名 王蛇帝国
    ◎片  名 King Cobra
    ◎年  代 2016
    ◎国  家 美国
    ◎类  别 剧情/犯罪/情色/同性
    ◎语  言 英语
    ◎上映日期 2016-04-16(翠贝卡电影节)/2016-10-21(美国)
    ◎IMDb评分  5.7/10 from 2,023 users
    ◎IMDb链接  http://www.imdb.com/title/tt5129682/
    ◎豆瓣评分 5.2/10 from 841 users
    ◎豆瓣链接 https://movie.douban.com/subject/26647011/
    ◎时代影视整理 http://www.sdy4.net
    ◎片  长 91分钟
    ◎导  演 贾斯汀·凯利 Justin Kelly
    ◎主  演 詹姆斯·弗兰科 James Franco
          克里斯蒂安·史莱特 Christian Slater
          凯加·艾伦 Keegan Allen
          加勒特·克莱顿 Garrett Clayton
          莫利·林沃德 Molly Ringwald
          艾丽西亚·希尔维斯通 Alicia Silverstone

    ◎简  介

      该片根据美国GV界轰动一时的谋杀案改编,讲述两个钙星为争夺“美国甜心” Brent Corrigan的合约,杀死业界呼风唤雨的大老板,并且差点让甜心背上黑锅的故事。

    Video
    ID                                       : 1
    Format                                   : AVC
    Format/Info                              : Advanced Video Codec
    Format profile                           : High@L4.1
    Format settings, CABAC                   : Yes
    Format settings, ReFrames                : 4 frames
    Codec ID                                 : V_MPEG4/ISO/AVC
    Duration                                 : 1h 32mn
    Bit rate mode                            : Variable
    Maximum bit rate                         : 36.0 Mbps
    Width                                    : 1 920 pixels
    Height                                   : 1 080 pixels
    Display aspect ratio                     : 16:9
    Frame rate mode                          : Constant
    Frame rate                               : 23.976 (24000/1001) fps
    Color space                              : YUV
    Chroma subsampling                       : 4:2:0
    Bit depth                                : 8 bits
    Scan type                                : Progressive
    Title                                    : King.Cobra.2016.1080p.BluRay.REMUX.AVC.DTS-HD.MA.5.1-FGT
    Language                                 : English
    Default                                  : No
    Forced                                   : No

    Audio #1
    ID                                       : 2
    Format                                   : DTS
    Format/Info                              : Digital Theater Systems
    Format profile                           : MA / Core
    Mode                                     : 16
    Format settings, Endianness              : Big
    Codec ID                                 : A_DTS
    Duration                                 : 1h 32mn
    Bit rate mode                            : Variable / Constant
    Bit rate                                 : Unknown / 1 509 Kbps
    Channel(s)                               : 6 channels
    Channel positions                        : Front: L C R, Side: L R, LFE
    Sampling rate                            : 48.0 KHz
    Frame rate                               : 93.750 fps (512 spf)
    Bit depth                                : 24 bits
    Compression mode                         : Lossless / Lossy
    Title                                    : King.Cobra.2016.1080p.BluRay.REMUX.AVC.DTS-HD.MA.5.1-FGT
    Language                                 : English
    Default                                  : Yes
    Forced                                   : No

    Audio #2
    ID                                       : 3
    Format                                   : DTS
    Format/Info                              : Digital Theater Systems
    Mode                                     : 16
    Format settings, Endianness              : Big
    Codec ID                                 : A_DTS
    Duration                                 : 1h 32mn
    Bit rate mode                            : Constant
    Bit rate                                 : 1 509 Kbps
    Channel(s)                               : 6 channels
    Channel positions                        : Front: L C R, Side: L R, LFE
    Sampling rate                            : 48.0 KHz
    Frame rate                               : 93.750 fps (512 spf)
    Bit depth                                : 24 bits
    Compression mode                         : Lossy
    Stream size                              : 995 MiB (4%)
    Title                                    : King.Cobra.2016.1080p.BluRay.REMUX.AVC.DTS-HD.MA.5.1-FGT
    Language                                 : English
    Default                                  : No
    Forced                                   : No

    Audio #3
    ID                                       : 4
    Format                                   : DTS
    Format/Info                              : Digital Theater Systems
    Format profile                           : MA / Core
    Mode                                     : 16
    Format settings, Endianness              : Big
    Codec ID                                 : A_DTS
    Duration                                 : 1h 32mn
    Bit rate mode                            : Variable / Constant
    Bit rate                                 : Unknown / 1 509 Kbps
    Channel(s)                               : 2 channels
    Channel positions                        : Front: L R
    Sampling rate                            : 48.0 KHz
    Frame rate                               : 93.750 fps (512 spf)
    Bit depth                                : 24 bits
    Compression mode                         : Lossless / Lossy
    Title                                    : King.Cobra.2016.1080p.BluRay.REMUX.AVC.DTS-HD.MA.5.1-FGT
    Language                                 : English
    Default                                  : No
    Forced                                   : No

    Audio #4
    ID                                       : 5
    Format                                   : DTS
    Format/Info                              : Digital Theater Systems
    Mode                                     : 16
    Format settings, Endianness              : Big
    Codec ID                                 : A_DTS
    Duration                                 : 1h 32mn
    Bit rate mode                            : Constant
    Bit rate                                 : 1 509 Kbps
    Channel(s)                               : 2 channels
    Channel positions                        : Front: L R
    Sampling rate                            : 48.0 KHz
    Frame rate                               : 93.750 fps (512 spf)
    Bit depth                                : 24 bits
    Compression mode                         : Lossy
    Stream size                              : 995 MiB (4%)
    Title                                    : King.Cobra.2016.1080p.BluRay.REMUX.AVC.DTS-HD.MA.5.1-FGT
    Language                                 : English
    Default                                  : No
    Forced                                   : No

    Text #1
    ID                                       : 6
    Format                                   : PGS
    Muxing mode                              : zlib
    Codec ID                                 : S_HDMV/PGS
    Codec ID/Info                            : Picture based subtitle format used on BDs/HD-DVDs
    Title                                    : English-PGS
    Language                                 : English
    Default                                  : Yes
    Forced                                   : No

    Text #2
    ID                                       : 7
    Format                                   : PGS
    Muxing mode                              : zlib
    Codec ID                                 : S_HDMV/PGS
    Codec ID/Info                            : Picture based subtitle format used on BDs/HD-DVDs
    Title                                    : Spanish-PGS
    Language                                 : Spanish
    Default                                  : No
    Forced                                   : No

    Menu
    00:00:00.000                             : en:Chapter 01
    00:08:06.986                             : en:Chapter 02
    00:14:13.602                             : en:Chapter 03
    00:22:10.704                             : en:Chapter 04
    00:28:36.256                             : en:Chapter 05
    00:35:39.595                             : en:Chapter 06
    00:43:16.427                             : en:Chapter 07
    00:49:50.904                             : en:Chapter 08
    00:56:11.242                             : en:Chapter 09
    01:04:27.071                             : en:Chapter 10
    01:13:40.833                             : en:Chapter 11
    01:22:09.341                             : en:Chapter 12
    01:32:09.607                             : en:Chapter 13

    游客,如果您要查看本帖隐藏内容请回复

    本帖子中包含更多资源

    您需要 登录 才可以下载或查看,没有帐号?立即注册

    x
    回复

    使用道具 举报

    您需要登录后才可以回帖 登录 | 立即注册

    本版积分规则

    Archiver|手机版|小黑屋|时代影视论坛(NowYS小组) ( 宁ICP备16002180号-4 )

    GMT+8, 2017-8-23 10:31 , Processed in 0.118336 second(s), 13 queries , Gzip On, Memcache On.

    Powered by 时代影视 X3.2

    © 2001-2013 Comsenz Inc.

    快速回复 返回顶部 返回列表