时代影视论坛(NowYS)

 找回密码
 立即注册
搜索
查看: 181|回复: 2

劫匪帮 Band.of.Robbers.2015.720p.BluRay.x264-SADPANDA 3.27GB

[复制链接]
  • TA的每日心情
    无聊
    2017-12-7 23:30
  • 签到天数: 199 天

    [LV.7]常住居民III

    发表于 2017-2-18 00:16:43 | 显示全部楼层 |阅读模式
    台湾UU

    ◎译  名 劫匪帮
    ◎片  名 Band of Robbers
    ◎年  代 2015
    ◎国  家 美国
    ◎类  别 喜剧/犯罪/惊悚/冒险
    ◎语  言 英语
    ◎上映日期 2015-06-13(洛杉矶电影节)/2016-01-15(美国)
    ◎IMDb评分  6.0/10 from 2,582 users
    ◎IMDb链接  http://www.imdb.com/title/tt4048668/
    ◎豆瓣评分 5.4/10 from 292 users
    ◎豆瓣链接 https://movie.douban.com/subject/26298247/
    ◎片  长 95分钟
    ◎导  演 Aaron Nee / 亚当·尼 Adam Nee
    ◎主  演 亚当·尼 Adam Nee
          梅丽莎·贝努瓦 Melissa Benoist
          凯尔·加尔纳 Kyle Gallner
          马修·格雷·古柏勒 Matthew Gray Gubler
          史蒂芬·朗 Stephen Lang
          艾瑞克·克里斯蒂安·奥森 Eric Christian Olsen
          贝丝·格兰特 Beth Grant
          库珀·哈克卡比 Cooper Huckabee
          李·加林顿 Lee Garlington
          克瑞德·布拉顿 Creed Bratton
          Harvey J. Alperin

    ◎简  介

      A comedic thriller that re-imagines Mark Twain's iconic literary characters of "Huckleberry Finn" and "Tom Sawyer" as grown men in current day.
    Band.of.Robbers.2015.720p.BluRay.x264-SADPANDA

    * SIZE ...... 3.3 GiB
    * DURATION .. 1 h 35 min
    * VIDEO ..... x264 1280x536 4,453Kbps @ 23.976fps
    * AUDIO ..... English AC3 448Kbps 6ch
    * SUBS ...... English

    * LINK ...... http://www.imdb.com/title/tt4048668
    * RATING .... 6.0/10 from 2,582 users
    * GENRE ..... Adventure  Comedy  Crime
    * PLOT ...... Tom Sawyer and Huck Finn are grown men, still
    searching for the hidden treasure that has eluded
    them since childhood.
    SAD-SAD-SADPANDA!
    Video
    ID                                       : 1
    Format                                   : AVC
    Format/Info                              : Advanced Video Codec
    Format profile                           : High@L4.1
    Format settings, CABAC                   : Yes
    Format settings, ReFrames                : 5 frames
    Codec ID                                 : V_MPEG4/ISO/AVC
    Duration                                 : 1h 35mn
    Bit rate                                 : 4 453 Kbps
    Width                                    : 1 280 pixels
    Height                                   : 536 pixels
    Display aspect ratio                     : 2.40:1
    Frame rate mode                          : Constant
    Frame rate                               : 23.976 (24000/1001) fps
    Color space                              : YUV
    Chroma subsampling                       : 4:2:0
    Bit depth                                : 8 bits
    Scan type                                : Progressive
    Bits/(Pixel*Frame)                       : 0.271
    Stream size                              : 2.97 GiB (91%)
    Writing library                          : x264 core 148 r2744 b97ae06
    Encoding settings                        : cabac=1 / ref=5 / deblock=1:-3:-3 / analyse=0x3:0x113 / me=umh / subme=8 / psy=1 / psy_rd=1.00:0.25 / mixed_ref=1 / me_range=24 / chroma_me=1 / trellis=1 / 8x8dct=1 / cqm=0 / deadzone=21,11 / fast_pskip=1 / chroma_qp_offset=-4 / threads=17 / lookahead_threads=2 / sliced_threads=0 / nr=0 / decimate=1 / interlaced=0 / bluray_compat=0 / constrained_intra=0 / bframes=3 / b_pyramid=2 / b_adapt=1 / b_bias=0 / direct=3 / weightb=1 / open_gop=0 / weightp=2 / keyint=240 / keyint_min=24 / scenecut=40 / intra_refresh=0 / rc_lookahead=50 / rc=2pass / mbtree=1 / bitrate=4453 / ratetol=1.0 / qcomp=0.60 / qpmin=0 / qpmax=69 / qpstep=4 / cplxblur=20.0 / qblur=0.5 / ip_ratio=1.40 / aq=1:0.75
    Default                                  : Yes
    Forced                                   : No

    Audio
    ID                                       : 2
    Format                                   : AC-3
    Format/Info                              : Audio Coding 3
    Mode extension                           : CM (complete main)
    Format settings, Endianness              : Big
    Codec ID                                 : A_AC3
    Duration                                 : 1h 35mn
    Bit rate mode                            : Constant
    Bit rate                                 : 448 Kbps
    Channel(s)                               : 6 channels
    Channel positions                        : Front: L C R, Side: L R, LFE
    Sampling rate                            : 48.0 KHz
    Frame rate                               : 31.250 fps (1536 spf)
    Compression mode                         : Lossy
    Stream size                              : 306 MiB (9%)
    Language                                 : English
    Default                                  : Yes
    Forced                                   : No

    Menu
    00:00:00.000                             : en:00:00:00.000
    00:09:08.798                             : en:00:09:08.798
    00:18:28.858                             : en:00:18:28.858
    00:27:16.009                             : en:00:27:16.009
    00:37:11.813                             : en:00:37:11.813
    00:47:09.744                             : en:00:47:09.744
    00:58:58.243                             : en:00:58:58.243
    01:09:52.063                             : en:01:09:52.063
    01:22:10.008                             : en:01:22:10.008
    01:29:27.863                             : en:01:29:27.863

    Screenshots:


    游客,如果您要查看本帖隐藏内容请回复



    本帖子中包含更多资源

    您需要 登录 才可以下载或查看,没有帐号?立即注册

    x
    回复

    使用道具 举报

  • TA的每日心情
    开心
    7 天前
  • 签到天数: 144 天

    [LV.7]常住居民III

    发表于 2017-2-18 10:32:06 | 显示全部楼层
    qqqqqqqqqqqqqqqqqqqqqqqq
    回复 支持 反对

    使用道具 举报

  • TA的每日心情
    郁闷
    2017-4-20 16:58
  • 签到天数: 14 天

    [LV.3]偶尔看看II

    发表于 2017-2-27 09:41:38 | 显示全部楼层
    三个火枪手的性福之旅 The.Sex.Adventures.Of.The.Three.Musketeers.1971
    回复 支持 反对

    使用道具 举报

    您需要登录后才可以回帖 登录 | 立即注册

    本版积分规则

    Archiver|手机版|小黑屋|时代影视论坛(NowYS小组) ( 宁ICP备16002180号-4 )

    GMT+8, 2017-12-17 00:41 , Processed in 0.207896 second(s), 12 queries , Gzip On, Memcache On.

    Powered by 时代影视 X3.2

    © 2001-2013 Comsenz Inc.

    快速回复 返回顶部 返回列表