时代影视论坛(NowYS)

 找回密码
 立即注册
搜索
查看: 171|回复: 4

[精品电影] 奔腾年代/壮志奔腾[国英简繁]Seabiscuit.2003.720p.BluRay.DTS.2Audio.x264-HDS 5.8GB

[复制链接]
  • TA的每日心情
    无聊
    2017-12-7 23:30
  • 签到天数: 199 天

    [LV.7]常住居民III

    发表于 2016-12-9 14:52:48 | 显示全部楼层 |阅读模式
    台湾UU


    [国英双语/简繁中字]

    ◎译  名 奔腾年代/壮志奔腾/奔腾岁月
    ◎片  名 Seabiscuit
    ◎年  代 2003
    ◎国  家 美国
    ◎类  别 剧情/历史/运动
    ◎语  言 英语
    ◎上映日期 2003-07-25(美国)
    ◎IMDb评分  7.3/10 from 58,156 users
    ◎豆瓣评分 8.4/10 from 22,329 users
    ◎时代影视整理 http://www.sdy4.cc
    ◎片  长 140分钟
    ◎导  演 盖瑞·罗斯 Gary Ross
    ◎主  演 托比·马奎尔 Tobey Maguire
          杰夫·布里吉斯 Jeff Bridges
          克里斯·库珀 Chris Cooper
          伊丽莎白·班克斯 Elizabeth Banks
          威廉姆·H·梅西 William H. Macy
          Gary Stevens
          迈克尔·安格拉诺 Michael Angarano
          David McCullough

    ◎简  介

      大萧条时期,每个人都要守住一个梦想,以此来度过最黑暗的时光,生活失意的汽车制造商查尔斯•霍华德(杰夫•布里吉斯 Jeff Bridges 饰)也不例外。他买了一匹小个子赛马,名为“海饼干”,并笼络了一批同样有梦想的人,意图进入赛马圈。
      第一个发现海饼干天赋的是训练师 汤姆•史密斯(克里斯•库珀 Chris Cooper 饰),他认为这匹马虽然个头矮小,腿脚也不太灵光,天性中却藏着十足的执拗和倔强,这有可能使其成为赛马圈的王者。他们找来前拳击冠军瑞德•波拉德(托比•马奎尔 Tobey Maguire饰)作为海饼干的骑师,三个人一匹马在共同的征程中重新找到了生活的方向。

    ◎获奖情况

      第76届奥斯卡金像奖  (2004)
      最佳影片(提名) 凯瑟琳·肯尼迪 / 盖瑞·罗斯 / 弗兰克·马歇尔
      最佳改编剧本(提名) 盖瑞·罗斯
      最佳摄影(提名) 约翰·施瓦兹曼
      最佳剪辑(提名) 威廉·戈登伯格
      最佳混音(提名) 安娜·贝尔莫 / Tod A. Maitland / Andy Nelson
      最佳美术指导(提名) Leslie A. Pope / 珍妮·克劳迪亚·欧普瓦
      最佳服装设计(提名) Judianna Makovsky

      第28届日本电影学院奖  (2005)
      最佳外语片(提名)

      第29届报知映画赏  (2004)
      海外作品奖 盖瑞·罗斯


    Complete name : Seabiscuit.2003.720p.BluRay.DTS.2Audio.x264-HDS.mkv
    Format : Matroska
    Format version : Version 4 / Version 2
    File size : 5.88 GiB
    Duration : 2 h 20 min
    Overall bit rate : 5 995 kb/s
    Movie name : Seabiscuit 2003 720p BluRay DTS 2Audio x264-HDS
    Encoded date : UTC 2016-12-08 10:35:59
    Writing application : mkvmerge v9.4.2 (\'So High\') 64bit
    Writing library : libebml v1.3.4 + libmatroska v1.4.5

    Video
    ID : 1
    Format : AVC
    Format/Info : Advanced Video Codec
    Format profile : High@L4.1
    Format settings, CABAC : Yes
    Format settings, ReFrames : 12 frames
    Codec ID : V_MPEG4/ISO/AVC
    Duration : 2 h 20 min
    Bit rate : 4 236 kb/s
    Width : 1 280 pixels
    Height : 544 pixels
    Display aspect ratio : 2.35:1
    Frame rate mode : Constant
    Frame rate : 23.976 (24000/1001) FPS
    Color space : YUV
    Chroma subsampling : 4:2:0
    Bit depth : 8 bits
    Scan type : Progressive
    Bits/(Pixel*Frame) : 0.254
    Stream size : 4.15 GiB (71%)
    Title : panyping@HDS
    Writing library : x264 core 148 r2699+6+41 29a38aa Yuuki [8-bit@4:2:0 X86_64][GCC 5.3.0]
    Encoding settings : cabac=1 / ref=12 / deblock=1:-3:-3 / analyse=0x3:0x113 / me=umh / subme=11 / psy=1 / fade_compensate=0.00 / psy_rd=1.00:0.05 / mixed_ref=1 / me_range=32 / chroma_me=1 / trellis=2 / 8x8dct=1 / cqm=0 / deadzone=21,11 / fast_pskip=0 / chroma_qp_offset=-2 / threads=32 / lookahead_threads=4 / sliced_threads=0 / nr=0 / decimate=1 / interlaced=0 / bluray_compat=0 / constrained_intra=0 / fgo=0 / bframes=8 / b_pyramid=2 / b_adapt=2 / b_bias=0 / direct=3 / weightb=1 / open_gop=0 / weightp=2 / keyint=250 / keyint_min=23 / scenecut=40 / intra_refresh=0 / rc=crf / mbtree=0 / crf=17.6000 / qcomp=0.60 / qpmin=0:0:0 / qpmax=69:69:69 / qpstep=4 / ip_ratio=1.40 / pb_ratio=1.30 / aq=3:0.90
    Default : Yes
    Forced : No

    Audio #1
    ID : 2
    Format : DTS
    Format/Info : Digital Theater Systems
    Mode : 16
    Format settings, Endianness : Big
    Codec ID : A_DTS
    Duration : 2 h 20 min
    Bit rate mode : Constant
    Bit rate : 1 509 kb/s
    Channel(s) : 6 channels
    Channel positions : Front: L C R, Side: L R, LFE
    Sampling rate : 48.0 kHz
    Frame rate : 93.750 FPS (512 spf)
    Bit depth : 24 bits
    Compression mode : Lossy
    Stream size : 1.48 GiB (25%)
    Title : English
    Language : English
    Default : Yes
    Forced : No

    Audio #2
    ID : 3
    Format : AC-3
    Format/Info : Audio Coding 3
    Mode extension : CM (complete main)
    Format settings, Endianness : Big
    Codec ID : A_AC3
    Duration : 2 h 20 min
    Bit rate mode : Constant
    Bit rate : 192 kb/s
    Channel(s) : 2 channels
    Channel positions : Front: L R
    Sampling rate : 48.0 kHz
    Frame rate : 31.250 FPS (1536 spf)
    Compression mode : Lossy
    Stream size : 193 MiB (3%)
    Title : Mandarin
    Language : Chinese
    Default : No
    Forced : No

    Text #1
    ID : 4
    Format : PGS
    Muxing mode : zlib
    Codec ID : S_HDMV/PGS
    Codec ID/Info : Picture based subtitle format used on BDs/HD-DVDs
    Duration : 2 h 10 min
    Bit rate : 10.4 kb/s
    Count of elements : 2884
    Stream size : 9.75 MiB (0%)
    Title : CHS
    Language : Chinese
    Default : Yes
    Forced : No

    Text #2
    ID : 5
    Format : PGS
    Muxing mode : zlib
    Codec ID : S_HDMV/PGS
    Codec ID/Info : Picture based subtitle format used on BDs/HD-DVDs
    Duration : 2 h 10 min
    Bit rate : 11.1 kb/s
    Count of elements : 2884
    Stream size : 10.4 MiB (0%)
    Title : CHT
    Language : Chinese
    Default : No
    Forced : No

    Text #3
    ID : 6
    Format : PGS
    Muxing mode : zlib
    Codec ID : S_HDMV/PGS
    Codec ID/Info : Picture based subtitle format used on BDs/HD-DVDs
    Duration : 2 h 16 min
    Bit rate : 36.2 kb/s
    Count of elements : 5972
    Stream size : 35.4 MiB (1%)
    Title : ENG
    Language : English
    Default : No
    Forced : No

    Menu
    00:00:00.000 : en:00:00:00.000
    00:03:07.312 : en:00:03:07.312
    00:10:52.151 : en:00:10:52.151
    00:12:49.519 : en:00:12:49.519
    00:18:12.383 : en:00:18:12.383
    00:20:30.312 : en:00:20:30.312
    00:27:10.629 : en:00:27:10.629
    00:39:35.873 : en:00:39:35.873
    00:44:03.266 : en:00:44:03.266
    00:47:08.075 : en:00:47:08.075
    00:53:05.474 : en:00:53:05.474
    00:58:38.640 : en:00:58:38.640
    01:00:33.964 : en:01:00:33.964
    01:06:46.002 : en:01:06:46.002
    01:13:03.045 : en:01:13:03.045
    01:14:31.050 : en:01:14:31.050
    01:17:57.840 : en:01:17:57.840
    01:21:05.319 : en:01:21:05.319
    01:23:08.734 : en:01:23:08.734
    01:27:59.900 : en:01:27:59.900
    01:35:19.213 : en:01:35:19.213
    01:39:05.898 : en:01:39:05.898
    01:48:32.506 : en:01:48:32.506
    01:59:21.780 : en:01:59:21.780
    02:08:12.768 : en:02:08:12.768



    游客,如果您要查看本帖隐藏内容请回复

    本帖子中包含更多资源

    您需要 登录 才可以下载或查看,没有帐号?立即注册

    x
    回复

    使用道具 举报

  • TA的每日心情
    开心
    2017-11-3 07:28
  • 签到天数: 20 天

    [LV.4]偶尔看看III

    发表于 2017-2-4 09:36:03 | 显示全部楼层
    好电影,谢谢楼主分享
    回复 支持 反对

    使用道具 举报

  • TA的每日心情
    难过
    4 天前
  • 签到天数: 136 天

    [LV.7]常住居民III

    发表于 2017-3-2 18:21:29 | 显示全部楼层
    今天签到了吗?请选择您此刻的
    回复 支持 反对

    使用道具 举报

  • TA的每日心情
    慵懒
    昨天 08:35
  • 签到天数: 292 天

    [LV.8]以坛为家I

    发表于 2017-3-3 13:41:37 | 显示全部楼层
    谢谢楼主分享
    回复 支持 反对

    使用道具 举报

  • TA的每日心情
    开心
    2017-11-5 14:55
  • 签到天数: 38 天

    [LV.5]常住居民I

    发表于 2017-10-12 22:24:16 | 显示全部楼层
    每天都来时代影视论坛看看有什么电影!
    回复 支持 反对

    使用道具 举报

    您需要登录后才可以回帖 登录 | 立即注册

    本版积分规则

    Archiver|手机版|小黑屋|时代影视论坛(NowYS小组) ( 宁ICP备16002180号-4 )

    GMT+8, 2017-12-17 00:37 , Processed in 0.181794 second(s), 13 queries , Gzip On, Memcache On.

    Powered by 时代影视 X3.2

    © 2001-2013 Comsenz Inc.

    快速回复 返回顶部 返回列表