时代影视论坛(NowYS小组)

 找回密码
 立即注册
搜索
查看: 2288|回复: 2

[BT下载]哈利·波特与火焰杯 2005.2160p.BluRay.x265.10bit.SDR.DTS-SWTYBLZ 31GB

[复制链接]

该用户从未签到

发表于 2017-12-30 00:13:42 | 显示全部楼层 |阅读模式
台湾UU

马上注册,结交更多好友,享用更多功能,让你轻松玩转社区。

您需要 登录 才可以下载或查看,没有帐号?立即注册

x
[更 早] [欧美] [奇幻] [BD-2160P][BT下载]哈利·波特与火焰杯 2005.2160p.BluRay.x265.10bit.SDR.DTS-SWTYBLZ 31GB



-->

Harry.Potter.and.the.Goblet.of.Fire.2005.2160p.BluRay.x265.10bit.SDR.DTS-X.7.1-SWTYBLZ

Harry.Potter.and.the.Goblet.of.Fire.2005.2160p.BluRay.x265.10bit.SDR.DTS-X.7.1-SWTYBLZ

◎译  名 哈利·波特与火焰杯/哈利波特4:火杯的考验(港/台)
◎片  名 Harry Potter and the Goblet of Fire
◎年  代 2005
◎产  地 英国/美国
◎类  别 奇幻/冒险
◎语  言 英语/法语
◎上映日期 2005-11-06(英国)/2005-11-18(中国大陆)
◎豆瓣评分 8.1/10 from 163,062 users
◎豆瓣链接 https://movie.douban.com/subject/1309055/
◎BT之家整理 http://www.btbtt.co
◎片  长 157 分钟
◎导  演 Mike Newell
◎主  演 Daniel Radcliffe
      Emma Watson
      Rupert Grint
      Timothy Spall
      Bonnie Wright
      Robert Pattinson
      Tom Felton
      梁凯蒂
      Michael Gambon
      Maggie Smith
      Alan Rickman
      Gary Oldman
      Ralph Fiennes


◎简  介


  这是一个不同寻常的学期,魔法学校的盛事:三强争霸赛在霍格沃茨举行。学生们争先报名,希翼获得永恒无上的荣誉。火焰杯在选出三所学校的三名勇士后,竟将未足年龄的哈利也挑选出来。
  哈利(Daniel Radcliffe饰)的当选引起其他学生的嫉妒连连,就连铁哥们罗恩(Rupert Grint饰)也首次和他闹起了别扭,哈利感到孤立无援,还好有教父小天狼星和赫敏一直支持他。可总有些好事者如记者丽塔等着看他的好戏。天知道这场比赛是何等艰辛危险,在龙的眼皮下偷蛋,潜入湖底救人,在迷宫中探险……一不小心,甚至可能付出生命的代价。
  黑魔王伏地魔的威胁渐渐显现,每一天都险象环生,动人心弦。




Video
ID                                       : 1
Format                                   : HEVC
Format/Info                              : High Efficiency Video Coding
Format profile                           : Main 10@L5.1@High
Codec ID                                 : V_MPEGH/ISO/HEVC
Duration                                 : 2 h 37 min
Bit rate                                 : 24.1 Mb/s
Width                                    : 3 840 pixels
Height                                   : 1 600 pixels
Display aspect ratio                     : 2.40:1
Frame rate mode                          : Constant
Frame rate                               : 23.976 (24000/1001) FPS
Color space                              : YUV
Chroma subsampling                       : 4:2:0
Bit depth                                : 10 bits
Bits/(Pixel*Frame)                       : 0.163
Stream size                              : 26.4 GiB (83%)
Title                                    : Harry.Potter.and.the.Goblet.of.Fire.2005.2160p.BluRay.x265.10bit.SDR.DTS-X.7.1-SWTYBLZ
Writing library                          : x265 2.5b4a5bcfe29c7:[Windows][GCC 4.9.3][64 bit] 10bit
Encoding settings                        : cpuid=1173503 / frame-threads=16 / numa-pools=24,24,24,24 / wpp / no-pmode / no-pme / no-psnr / no-ssim / log-level=2 / input-csp=1 / input-res=3840x1600 / interlace=0 / total-frames=0 / level-idc=51 / high-tier=1 / uhd-bd=0 / ref=3 / no-allow-non-conformance / repeat-headers / annexb / aud / hrd / info / hash=0 / no-temporal-layers / no-open-gop / min-keyint=1 / keyint=24 / bframes=4 / b-adapt=2 / b-pyramid / bframe-bias=0 / rc-lookahead=25 / lookahead-slices=4 / scenecut=40 / no-intra-refresh / ctu=64 / min-cu-size=8 / no-rect / no-amp / max-tu-size=32 / tu-inter-depth=1 / tu-intra-depth=1 / limit-tu=0 / rdoq-level=0 / dynamic-rd=0.00 / no-ssim-rd / signhide / no-tskip / nr-intra=0 / nr-inter=0 / no-constrained-intra / strong-intra-smoothing / max-merge=2 / limit-refs=3 / no-limit-modes / me=1 / subme=2 / merange=57 / temporal-mvp / weightp / no-weightb / no-analyze-src-pics / deblock=0:0 / no-sao / no-sao-non-deblock / rd=3 / no-early-skip / rskip / no-fast-intra / no-tskip-fast / no-cu-lossless / no-b-intra / rdpenalty=0 / psy-rd=2.00 / psy-rdoq=0.00 / no-rd-refine / analysis-reuse-mode=0 / no-lossless / cbqpoffs=0 / crqpoffs=0 / rc=crf / crf=16.0 / qcomp=0.60 / qpstep=4 / stats-write=0 / stats-read=0 / vbv-maxrate=160000 / vbv-bufsize=160000 / vbv-init=0.9 / crf-max=0.0 / crf-min=0.0 / ipratio=1.40 / pbratio=1.30 / aq-mode=1 / aq-strength=1.00 / cutree / zone-count=0 / no-strict-cbr / qg-size=32 / no-rc-grain / qpmax=69 / qpmin=0 / no-const-vbv / sar=1 / overscan=0 / videoformat=5 / range=0 / colorprim=2 / transfer=2 / colormatrix=2 / chromaloc=0 / display-window=0 / max-cll=0,0 / min-luma=0 / max-luma=1023 / log2-max-poc-lsb=8 / vui-timing-info / vui-hrd-info / slices=1 / opt-qp-pps / opt-ref-list-length-pps / no-multi-pass-opt-rps / scenecut-bias=0.05 / no-opt-cu-delta-qp / no-aq-motion / no-hdr / no-hdr-opt / no-dhdr10-opt / analysis-reuse-level=5 / scale-factor=0 / refine-intra=0 / refine-inter=0 / refine-mv=0 / no-limit-sao / ctu-info=0
Default                                  : Yes
Forced                                   : No

Audio #1
ID                                       : 2
Format                                   : DTS
Format/Info                              : Digital Theater Systems
Format profile                           : X / MA / Core
Codec ID                                 : A_DTS
Duration                                 : 2 h 37 min
Bit rate mode                            : Variable / Variable / Constant
Bit rate                                 : 4 051 kb/s / 4 051 kb/s / 1 509 kb/s
Channel(s)                               : Object Based / 8 channels / 6 channels
Channel positions                        : Object Based / Front: L C R, Side: L R, Back: L R, LFE / Front: L C R, Side: L R, LFE
Sampling rate                            :  / 48.0 kHz / 48.0 kHz
Frame rate                               : 93.750 FPS (512 SPF)
Bit depth                                :  / 24 bits / 24 bits
Compression mode                         :  / Lossless / Lossy
Stream size                              : 4.45 GiB (14%)
Title                                    : Harry.Potter.and.the.Goblet.of.Fire.2005.2160p.BluRay.x265.10bit.SDR.DTS-X.7.1-SWTYBLZ
Language                                 : English
Default                                  : Yes
Forced                                   : No

Audio #2
ID                                       : 3
Format                                   : AC-3
Format/Info                              : Audio Coding 3
Codec ID                                 : A_AC3
Duration                                 : 2 h 37 min
Bit rate mode                            : Constant
Bit rate                                 : 640 kb/s
Channel(s)                               : 6 channels
Channel positions                        : Front: L C R, Side: L R, LFE
Sampling rate                            : 48.0 kHz
Frame rate                               : 31.250 FPS (1536 SPF)
Bit depth                                : 16 bits
Compression mode                         : Lossy
Stream size                              : 719 MiB (2%)
Title                                    : Harry.Potter.and.the.Goblet.of.Fire.2005.2160p.BluRay.x265.10bit.SDR.DTS-X.7.1-SWTYBLZ
Language                                 : English
Service kind                             : Complete Main
Default                                  : No
Forced                                   : No

Text #1
ID                                       : 4
Format                                   : UTF-8
Codec ID                                 : S_TEXT/UTF8
Codec ID/Info                            : UTF-8 Plain Text
Duration                                 : 2 h 21 min
Bit rate                                 : 48 b/s
Count of elements                        : 1514
Stream size                              : 50.7 KiB (0%)
Title                                    : English-SRT
Language                                 : English
Default                                  : Yes
Forced                                   : No

Text #2
ID                                       : 5
Format                                   : PGS
Muxing mode                              : zlib
Codec ID                                 : S_HDMV/PGS
Codec ID/Info                            : Picture based subtitle format used on BDs/HD-DVDs
Duration                                 : 2 h 36 min
Bit rate                                 : 27.1 kb/s
Count of elements                        : 3608
Stream size                              : 30.3 MiB (0%)
Title                                    : English-PGS
Language                                 : English
Default                                  : No
Forced                                   : No

Text #3
ID                                       : 6
Format                                   : PGS
Muxing mode                              : zlib
Codec ID                                 : S_HDMV/PGS
Codec ID/Info                            : Picture based subtitle format used on BDs/HD-DVDs
Duration                                 : 2 h 22 min
Bit rate                                 : 19.9 kb/s
Count of elements                        : 3415
Stream size                              : 20.3 MiB (0%)
Title                                    : Japanese-PGS
Language                                 : Japanese
Default                                  : No
Forced                                   : No

Text #4
ID                                       : 7
Format                                   : PGS
Muxing mode                              : zlib
Codec ID                                 : S_HDMV/PGS
Codec ID/Info                            : Picture based subtitle format used on BDs/HD-DVDs
Duration                                 : 1 h 21 min
Bit rate                                 : 429 b/s
Count of elements                        : 180
Stream size                              : 257 KiB (0%)
Title                                    : Japanese-PGS
Language                                 : Japanese
Default                                  : No
Forced                                   : No

Text #5
ID                                       : 8
Format                                   : PGS
Muxing mode                              : zlib
Codec ID                                 : S_HDMV/PGS
Codec ID/Info                            : Picture based subtitle format used on BDs/HD-DVDs
Duration                                 : 2 h 35 min
Bit rate                                 : 18.8 kb/s
Count of elements                        : 3096
Stream size                              : 21.0 MiB (0%)
Title                                    : French-PGS
Language                                 : French
Default                                  : No
Forced                                   : No

Text #6
ID                                       : 9
Format                                   : PGS
Muxing mode                              : zlib
Codec ID                                 : S_HDMV/PGS
Codec ID/Info                            : Picture based subtitle format used on BDs/HD-DVDs
Duration                                 : 2 h 36 min
Bit rate                                 : 30.1 kb/s
Count of elements                        : 3656
Stream size                              : 33.7 MiB (0%)
Title                                    : German-PGS
Language                                 : German
Default                                  : No
Forced                                   : No

Text #7
ID                                       : 10
Format                                   : PGS
Muxing mode                              : zlib
Codec ID                                 : S_HDMV/PGS
Codec ID/Info                            : Picture based subtitle format used on BDs/HD-DVDs
Duration                                 : 2 h 36 min
Bit rate                                 : 27.0 kb/s
Count of elements                        : 3616
Stream size                              : 30.2 MiB (0%)
Title                                    : Italian-PGS
Language                                 : Italian
Default                                  : No
Forced                                   : No

Text #8
ID                                       : 11
Format                                   : PGS
Muxing mode                              : zlib
Codec ID                                 : S_HDMV/PGS
Codec ID/Info                            : Picture based subtitle format used on BDs/HD-DVDs
Duration                                 : 2 h 36 min
Bit rate                                 : 22.4 kb/s
Count of elements                        : 2988
Stream size                              : 25.0 MiB (0%)
Title                                    : Spanish-PGS
Language                                 : Spanish
Default                                  : No
Forced                                   : No

Text #9
ID                                       : 12
Format                                   : PGS
Muxing mode                              : zlib
Codec ID                                 : S_HDMV/PGS
Codec ID/Info                            : Picture based subtitle format used on BDs/HD-DVDs
Duration                                 : 2 h 36 min
Bit rate                                 : 22.6 kb/s
Count of elements                        : 2996
Stream size                              : 25.2 MiB (0%)
Title                                    : Spanish-PGS
Language                                 : Spanish
Default                                  : No
Forced                                   : No

Text #10
ID                                       : 13
Format                                   : PGS
Muxing mode                              : zlib
Codec ID                                 : S_HDMV/PGS
Codec ID/Info                            : Picture based subtitle format used on BDs/HD-DVDs
Duration                                 : 2 h 36 min
Bit rate                                 : 23.4 kb/s
Count of elements                        : 2962
Stream size                              : 26.1 MiB (0%)
Title                                    : Portuguese-PGS
Language                                 : Portuguese
Default                                  : No
Forced                                   : No

Menu
00:00:00.000                             : en:Chapter 1
00:03:46.559                             : en:Chapter 2
00:06:09.369                             : en:Chapter 3
00:09:50.089                             : en:Chapter 4
00:13:45.324                             : en:Chapter 5
00:19:14.987                             : en:Chapter 6
00:23:09.388                             : en:Chapter 7
00:29:01.573                             : en:Chapter 8
00:36:26.684                             : en:Chapter 9
00:39:05.009                             : en:Chapter 10
00:41:32.490                             : en:Chapter 11
00:45:36.400                             : en:Chapter 12
00:49:07.778                             : en:Chapter 13
00:54:06.243                             : en:Chapter 14
01:02:46.596                             : en:Chapter 15
01:09:12.982                             : en:Chapter 16
01:14:43.979                             : en:Chapter 17
01:22:27.609                             : en:Chapter 18
01:30:34.762                             : en:Chapter 19
01:39:29.296                             : en:Chapter 20
01:42:42.489                             : en:Chapter 21
01:47:22.936                             : en:Chapter 22
01:50:19.279                             : en:Chapter 23
01:58:54.460                             : en:Chapter 24
02:02:02.315                             : en:Chapter 25
02:06:36.589                             : en:Chapter 26
02:10:01.627                             : en:Chapter 27
02:17:38.083                             : en:Chapter 28
02:23:48.620                             : en:Chapter 29




a7c925731766dfb127d275e92a4d39e0.jpg
cef6687807b6a4722f9c7e30bbde2f3f.jpg

18280eccb78482ae2fdbe228ba68801b.jpg
a4c5b498c398cd09afa21386d31128d9.jpg

2593245694f62808fab82c2f86d3233a.jpg
75bba4124c2261ce525e89a7adb49f9f.jpg



b15e9d2a35ffe64c5c23d5bd4a135551.torrent (80.24 KB, 下载次数: 4)
回复

使用道具 举报

  • TA的每日心情
    开心
    2018-7-28 15:55
  • 签到天数: 204 天

    [LV.7]常住居民III

    发表于 2017-12-30 21:34:18 | 显示全部楼层
    我看不错噢 谢谢楼主!
    回复 支持 反对

    使用道具 举报

  • TA的每日心情
    奋斗
    2018-9-18 08:25
  • 签到天数: 182 天

    [LV.7]常住居民III

    发表于 2018-1-4 08:49:17 | 显示全部楼层
    孩子的最爱
    回复 支持 反对

    使用道具 举报

    您需要登录后才可以回帖 登录 | 立即注册

    本版积分规则

    Archiver|手机版|小黑屋|时代影视论坛 ( 宁ICP备16002180号-4 )

    GMT+8, 2018-9-26 13:40 , Processed in 0.152657 second(s), 29 queries , Gzip On.

    Powered by 时代影视 X3.2

    © 2001-2013 Comsenz Inc.

    快速回复 返回顶部 返回列表