时代影视论坛(NowYS)

 找回密码
 立即注册
搜索
查看: 2046|回复: 0

[1080p] [BT下载]个人最佳 Personal.Best.1982.1080p.AMZN.WEBRip.DDP2.0.x264-SiGMA 12.9GB

[复制链接]

该用户从未签到

发表于 2018-1-8 03:06:54 | 显示全部楼层 |阅读模式
台湾UU

马上注册,结交更多好友,享用更多功能,让你轻松玩转社区。

您需要 登录 才可以下载或查看,没有帐号?立即注册

x
[更 早] [欧美] [剧情] [WEB-1080P][BT下载]个人最佳 Personal.Best.1982.1080p.AMZN.WEBRip.DDP2.0.x264-SiGMA 12.9GB



-->

Personal.Best.1982.1080p.AMZN.WEBRip.DDP2.0.x264-SiGMA

Personal.Best.1982.1080p.AMZN.WEBRip.DDP2.0.x264-SiGMA



◎译  名 个人最佳/双姝奥运情
◎片  名 Personal Best
◎年  代 1982
◎产  地 美国
◎类  别 剧情/运动
◎语  言 英语
◎上映日期 1982-02-05
◎IMDb评分  6.3/10 from 2,046 users
◎IMDb链接  http://www.imdb.com/title/tt0084489/
◎豆瓣评分 6.6/10 from 13 users
◎豆瓣链接 https://movie.douban.com/subject/1298735/
◎BT之家整理 http://www.btbtt.co
◎片  长 124 分钟
◎导  演 罗伯特·汤 Robert Towne
◎主  演 玛瑞儿·海明威 Mariel Hemingway
      斯科特·格伦 Scott Glenn
      Patrice Donnelly


◎简  介


  The intertwined lives and loves of three highly-ranked athletes striving for the national team; Chris bounces between the beds of male coach Terry and her femalefriend| competitor| and role model Tory.


Video
ID                                       : 1
Format                                   : AVC
Format/Info                              : Advanced Video Codec
Format profile                           : High@L4
Format settings                          : CABAC / 4 Ref Frames
Format settings, CABAC                   : Yes
Format settings, ReFrames                : 4 frames
Codec ID                                 : V_MPEG4/ISO/AVC
Duration                                 : 2 h 8 min
Bit rate mode                            : Variable
Bit rate                                 : 14.3 Mb/s
Maximum bit rate                         : 15.0 Mb/s
Width                                    : 1 920 pixels
Height                                   : 1 080 pixels
Display aspect ratio                     : 16:9
Frame rate mode                          : Constant
Frame rate                               : 23.976 (24000/1001) FPS
Color space                              : YUV
Chroma subsampling                       : 4:2:0
Bit depth                                : 8 bits
Scan type                                : Progressive
Bits/(Pixel*Frame)                       : 0.287
Stream size                              : 12.8 GiB (98%)
Default                                  : Yes
Forced                                   : No
Color range                              : Limited
Color primaries                          : BT.709
Transfer characteristics                 : BT.709
Matrix coefficients                      : BT.709

Audio
ID                                       : 2
Format                                   : E-AC-3
Format/Info                              : Enhanced Audio Coding 3
Codec ID                                 : A_EAC3
Duration                                 : 2 h 8 min
Bit rate mode                            : Constant
Bit rate                                 : 224 kb/s
Channel(s)                               : 2 channels
Channel positions                        : Front: L R
Sampling rate                            : 48.0 kHz
Frame rate                               : 187.500 FPS (256 SPF)
Compression mode                         : Lossy
Stream size                              : 205 MiB (2%)
Language                                 : English
Service kind                             : Complete Main
Default                                  : Yes
Forced                                   : No

Text
ID                                       : 3
Format                                   : UTF-8
Codec ID                                 : S_TEXT/UTF8
Codec ID/Info                            : UTF-8 Plain Text
Duration                                 : 2 h 2 min
Bit rate                                 : 58 b/s
Count of elements                        : 1615
Stream size                              : 52.2 KiB (0%)
Language                                 : English
Default                                  : No
Forced                                   : No


d5441cf8fe6ce421515980cc160618e6.jpg
b9ef4e3c13dc80706405f7ba85e26b62.jpg

11726490814ce490602b77f5ff169f65.jpg
1b9fa4fca39e17fd2af1a538797cb89f.jpg

211ba0da871d19e1cd986735595a3c89.jpg
ab45183714f85454696e64bee35525a2.jpg



d131fd698e06a31d6a69f1fba331f1b5.torrent (65.51 KB, 下载次数: 1)
回复

使用道具 举报

您需要登录后才可以回帖 登录 | 立即注册

本版积分规则

Archiver|手机版|小黑屋|时代影视论坛(NowYS小组) ( 宁ICP备16002180号-4 )

GMT+8, 2018-6-22 03:32 , Processed in 0.157820 second(s), 30 queries , Gzip On.

Powered by 时代影视 X3.2

© 2001-2013 Comsenz Inc.

快速回复 返回顶部 返回列表