时代影视论坛(NowYS)

 找回密码
 立即注册
搜索
查看: 2071|回复: 1

[BT下载]活死人黎明 1978.2160p.BluRay.x265.10bit.SDR.DTS-HD.MA.5.1-SWTYBLZ 30GB

[复制链接]

该用户从未签到

发表于 2018-1-10 03:07:13 | 显示全部楼层 |阅读模式
台湾UU

马上注册,结交更多好友,享用更多功能,让你轻松玩转社区。

您需要 登录 才可以下载或查看,没有帐号?立即注册

x
[更 早] [欧美] [恐怖] [BD-2160P][BT下载]活死人黎明 1978.2160p.BluRay.x265.10bit.SDR.DTS-HD.MA.5.1-SWTYBLZ 30GB



-->

Dawn.of.the.Dead.1978.2160p.BluRay.x265.10bit.SDR.DTS-HD.MA.5.1-SWTYBLZ

Dawn.of.the.Dead.1978.2160p.BluRay.x265.10bit.SDR.DTS-HD.MA.5.1-SWTYBLZ

◎译  名 活死人黎明/死亡黎明/僵尸的黎明/生人回避
◎片  名 Dawn of the Dead
◎年  代 1978
◎产  地 意大利/美国
◎类  别 动作/恐怖
◎语  言 英语
◎上映日期 1978-09-02
◎IMDb评分  8.0/10 from 94,071 users
◎IMDb链接  http://www.imdb.com/title/tt0077402/
◎豆瓣评分 7.2/10 from 4,371 users
◎豆瓣链接 https://movie.douban.com/subject/1295578/
◎BT之家整理 http://www.btbtt.co
◎片  长 126 分钟/Germany: 156 分钟(extended version)/Italy: 117 分钟(Dario Argento's European/Italian Cut)/Spain: 115 分钟/USA: 128 分钟(DVD version)/USA: 139 分钟(director's cut)
◎导  演 乔治·A·罗梅罗 George A. Romero
◎主  演 David Emge
      肯·佛瑞 Ken Foree
      斯科特·H·雷宁格 Scott H. Reiniger
      Gaylen Ross
      David Crawford


◎简  介


  死而复生的嗜血僵尸如瘟疫般迅速占领全城,整个城市在一夜之间成为僵尸之城。为了躲避僵尸的攻击,两个特种部队警察和一个交通记者以及他的女友,逃到了一个荒废的大型购物中心里。这四个人斯蒂芬(大卫·艾梅治 David Emge 饰)、彼得(肯·弗里 Ken Foree 饰)、罗杰(斯科特·H·雷宁格 Scott H. Reiniger 饰)以及法兰妮(盖伦·罗丝 Gaylen Ross 饰)使尽浑身解数武装自己,尽一切可能抵抗凶残僵尸的袭击。然而他们的抵抗却不敌越来越多的僵尸,好景不长,僵尸蜂拥而至。雪上加霜的是,一大群车手也发现了这个避难所。四人不但要躲避疯狂的僵尸,还要同凶残的劫匪对抗。
  丧失电影教父乔治·A·罗梅罗继1968年成功推出《活死人之夜》后,再次打造本部经典恐怖片《活死人黎明》,成为僵尸三部曲中盈利最多的一部。



Video
ID                                       : 1
Format                                   : HEVC
Format/Info                              : High Efficiency Video Coding
Format profile                           : Main 10@L5.1@High
Codec ID                                 : V_MPEGH/ISO/HEVC
Duration                                 : 1 h 59 min
Bit rate                                 : 33.7 Mb/s
Width                                    : 3 840 pixels
Height                                   : 2 076 pixels
Display aspect ratio                     : 1.85:1
Frame rate mode                          : Constant
Frame rate                               : 24.000 FPS
Color space                              : YUV
Chroma subsampling                       : 4:2:0
Bit depth                                : 10 bits
Bits/(Pixel*Frame)                       : 0.176
Stream size                              : 28.2 GiB (92%)
Title                                    : Dawn.of.the.Dead.1978.2160p.BluRay.x265.10bit.SDR.DTS-HD.MA.5.1-SWTYBLZ
Writing library                          : x265 2.5b4a5bcfe29c7:[Windows][GCC 4.9.3][64 bit] 10bit
Encoding settings                        : cpuid=1173503 / frame-threads=16 / numa-pools=24,24,24,24 / wpp / no-pmode / no-pme / no-psnr / no-ssim / log-level=2 / input-csp=1 / input-res=3840x2076 / interlace=0 / total-frames=0 / level-idc=51 / high-tier=1 / uhd-bd=0 / ref=3 / no-allow-non-conformance / repeat-headers / annexb / aud / hrd / info / hash=0 / no-temporal-layers / no-open-gop / min-keyint=1 / keyint=24 / bframes=4 / b-adapt=2 / b-pyramid / bframe-bias=0 / rc-lookahead=25 / lookahead-slices=4 / scenecut=40 / no-intra-refresh / ctu=64 / min-cu-size=8 / no-rect / no-amp / max-tu-size=32 / tu-inter-depth=1 / tu-intra-depth=1 / limit-tu=0 / rdoq-level=0 / dynamic-rd=0.00 / no-ssim-rd / signhide / no-tskip / nr-intra=0 / nr-inter=0 / no-constrained-intra / strong-intra-smoothing / max-merge=2 / limit-refs=3 / no-limit-modes / me=1 / subme=2 / merange=57 / temporal-mvp / weightp / no-weightb / no-analyze-src-pics / deblock=0:0 / no-sao / no-sao-non-deblock / rd=3 / no-early-skip / rskip / no-fast-intra / no-tskip-fast / no-cu-lossless / no-b-intra / rdpenalty=0 / psy-rd=2.00 / psy-rdoq=0.00 / no-rd-refine / analysis-reuse-mode=0 / no-lossless / cbqpoffs=0 / crqpoffs=0 / rc=crf / crf=20.0 / qcomp=0.60 / qpstep=4 / stats-write=0 / stats-read=0 / vbv-maxrate=160000 / vbv-bufsize=160000 / vbv-init=0.9 / crf-max=0.0 / crf-min=0.0 / ipratio=1.40 / pbratio=1.30 / aq-mode=1 / aq-strength=1.00 / cutree / zone-count=0 / no-strict-cbr / qg-size=32 / no-rc-grain / qpmax=69 / qpmin=0 / no-const-vbv / sar=1 / overscan=0 / videoformat=5 / range=0 / colorprim=2 / transfer=2 / colormatrix=2 / chromaloc=0 / display-window=0 / max-cll=0,0 / min-luma=0 / max-luma=1023 / log2-max-poc-lsb=8 / vui-timing-info / vui-hrd-info / slices=1 / opt-qp-pps / opt-ref-list-length-pps / no-multi-pass-opt-rps / scenecut-bias=0.05 / no-opt-cu-delta-qp / no-aq-motion / no-hdr / no-hdr-opt / no-dhdr10-opt / analysis-reuse-level=5 / scale-factor=0 / refine-intra=0 / refine-inter=0 / refine-mv=0 / no-limit-sao / ctu-info=0
Default                                  : Yes
Forced                                   : No

Audio #1
ID                                       : 2
Format                                   : DTS
Format/Info                              : Digital Theater Systems
Format profile                           : MA / Core
Codec ID                                 : A_DTS
Duration                                 : 1 h 59 min
Bit rate mode                            : Variable / Constant
Bit rate                                 : 2 092 kb/s / 1 509 kb/s
Channel(s)                               : 6 channels
Channel positions                        : Front: L C R, Side: L R, LFE
Sampling rate                            : 48.0 kHz
Frame rate                               : 93.750 FPS (512 SPF)
Bit depth                                : 24 bits
Compression mode                         : Lossless / Lossy
Stream size                              : 1.75 GiB (6%)
Title                                    : Dawn.of.the.Dead.1978.2160p.BluRay.x265.10bit.SDR.DTS-HD.MA.5.1-SWTYBLZ
Language                                 : English
Default                                  : Yes
Forced                                   : No

Audio #2
ID                                       : 3
Format                                   : AC-3
Format/Info                              : Audio Coding 3
Codec ID                                 : A_AC3
Duration                                 : 1 h 59 min
Bit rate mode                            : Constant
Bit rate                                 : 640 kb/s
Channel(s)                               : 6 channels
Channel positions                        : Front: L C R, Side: L R, LFE
Sampling rate                            : 48.0 kHz
Frame rate                               : 31.250 FPS (1536 SPF)
Bit depth                                : 16 bits
Compression mode                         : Lossy
Stream size                              : 548 MiB (2%)
Title                                    : Dawn.of.the.Dead.1978.2160p.BluRay.x265.10bit.SDR.DTS-HD.MA.5.1-SWTYBLZ
Language                                 : English
Service kind                             : Complete Main
Default                                  : No
Forced                                   : No

Text
ID                                       : 4
Format                                   : PGS
Muxing mode                              : zlib
Codec ID                                 : S_HDMV/PGS
Codec ID/Info                            : Picture based subtitle format used on BDs/HD-DVDs
Duration                                 : 1 h 56 min
Bit rate                                 : 19.1 kb/s
Count of elements                        : 1482
Stream size                              : 15.9 MiB (0%)
Title                                    : Italian-PGS
Language                                 : Italian
Default                                  : No
Forced                                   : No

Menu
00:00:00.000                             : en:00:00:00.000
00:00:39.958                             : en:00:00:39.958
00:07:11.708                             : en:00:07:11.708
00:16:20.708                             : en:00:16:20.708
00:23:44.833                             : en:00:23:44.833
00:32:40.333                             : en:00:32:40.333
00:41:49.083                             : en:00:41:49.083
00:46:56.250                             : en:00:46:56.250
00:55:18.375                             : en:00:55:18.375
01:04:48.917                             : en:01:04:48.917
01:11:20.917                             : en:01:11:20.917
01:20:00.625                             : en:01:20:00.625
01:28:15.542                             : en:01:28:15.542
01:36:15.167                             : en:01:36:15.167
01:43:16.708                             : en:01:43:16.708
01:49:53.125                             : en:01:49:53.125
01:58:05.042                             : en:01:58:05.042




c747d0d27d866e9ed305fe4c24cc4912.jpg
93233ca87cf24c01800ee31cda8d5b80.jpg

124504985f973274895e33b2e6db183d.jpg
a261740b2d99c44f2390ad236673711b.jpg

c6c4efe82424b8f1a64ee8356c1ba202.jpg
8bf5e9afa185549580262f55d9c4be01.jpg



d8cb0d93dd9a7cf172d71619b4c5ef11.torrent (77.77 KB, 下载次数: 5)
回复

使用道具 举报

  • TA的每日心情
    郁闷
    3 天前
  • 签到天数: 366 天

    [LV.9]以坛为家II

    发表于 2018-1-10 12:00:03 | 显示全部楼层
    感谢楼主的无私分享!
    回复 支持 反对

    使用道具 举报

    您需要登录后才可以回帖 登录 | 立即注册

    本版积分规则

    Archiver|手机版|小黑屋|时代影视论坛(NowYS小组) ( 宁ICP备16002180号-4 )

    GMT+8, 2018-6-22 03:30 , Processed in 0.154026 second(s), 29 queries , Gzip On.

    Powered by 时代影视 X3.2

    © 2001-2013 Comsenz Inc.

    快速回复 返回顶部 返回列表