时代影视论坛(NowYS小组)

 找回密码
 立即注册
搜索
查看: 344|回复: 1

[BT下载]帝一之国[内封中字]2017.1080p.BluRay.x264.DTS-WiKi 9.1GB

[复制链接]

该用户从未签到

发表于 2018-1-12 02:55:03 | 显示全部楼层 |阅读模式
台湾UU

马上注册,结交更多好友,享用更多功能,让你轻松玩转社区。

您需要 登录 才可以下载或查看,没有帐号?立即注册

x
[2017] [日本] [剧情] [BD-1080P][BT下载]帝一之国[内封中字]2017.1080p.BluRay.x264.DTS-WiKi 9.1GB



-->

Teiichi.Battle.of.Supreme.High.2017.1080p.BluRay.x264.DTS-WiKi

Teiichi.Battle.of.Supreme.High.2017.1080p.BluRay.x264.DTS-WiKi

◎译  名 帝一之国
◎片  名 帝一の國
◎年  代 2017
◎产  地 日本
◎类  别 剧情/喜剧
◎语  言 日语
◎上映日期 2017-04-29(日本)
◎IMDb评分  7.4/10 from 119 users
◎IMDb链接  http://www.imdb.com/title/tt5293604/
◎豆瓣评分 8.1/10 from 9,068 users
◎豆瓣链接 https://movie.douban.com/subject/26691320/
◎BT之家整理 http://www.btbtt.co
◎片  长 118分钟
◎导  演 永井聪 Akira Nagai
◎主  演 菅田将晖 Masaki Suda
      野村周平 Shuhei Nomura
      竹内涼真 Ryoma Takeuchi
      间宫祥太朗 Shotaro Mamiya
      志尊淳 Jun Shison
      千叶雄大 Yudai Chiba
      永野芽郁 Mei Nagano
      铃木胜大 Katsuhiko Suzuki
      萩原利久 Riku Hagiwara
      冈山天音 Okayama Amane
      井之胁海 Kai Inowaki
      木村了 Ryo Kimura
      吉田钢太郎 K?tar? Yoshida


◎简  介


  生长于政治世家的赤场帝一(菅田将晖饰),从小就以当上日本总理为目标,为了建立自己的王国,他必须在孕育出多位政治领袖,人称「超精英学校」的海帝高校展露头角,只有当过海帝高校学生会长的人,未来才有机会角逐总理的宝座。「我一定打败所有竞争对手,站在顶点!为此我会不择手段!」比谁都早开始计划的帝一,将要面对意想不到的陷阱和试炼!斗个你死我活的学生会长选举战争即将华丽展开!


◎获奖情况


  第42届报知映画赏  (2017)
  最佳男主角 菅田将晖


  第4届豆瓣电影年度榜单  (2017)
  评分最高的日本电影(提名)


ideo
ID                                       : 1
Format                                   : AVC
Format/Info                              : Advanced Video Codec
Format profile                           : High@L4.1
Format settings                          : CABAC / 5 Ref Frames
Format settings, CABAC                   : Yes
Format settings, ReFrames                : 5 frames
Codec ID                                 : V_MPEG4/ISO/AVC
Duration                                 : 1 h 57 min
Bit rate                                 : 10.3 Mb/s
Width                                    : 1 920 pixels
Height                                   : 804 pixels
Display aspect ratio                     : 2.40:1
Frame rate mode                          : Constant
Frame rate                               : 23.976 (24000/1001) FPS
Color space                              : YUV
Chroma subsampling                       : 4:2:0
Bit depth                                : 8 bits
Scan type                                : Progressive
Bits/(Pixel*Frame)                       : 0.278
Stream size                              : 8.47 GiB (93%)
Writing library                          : x264 core 129 r2245+704+36 8e61944 tMod+MixAQ [8-bit@4:2:0 X86_64]
Encoding settings                        : cabac=1 / ref=5 / deblock=1:-3:-3 / analyse=0x3:0x133 / me=umh / subme=11 / psy=1 / fade_compensate=0.00 / psy_rd=1.05:0.10 / mixed_ref=1 / me_range=32 / chroma_me=1 / trellis=2 / 8x8dct=1 / cqm=0 / deadzone=21,11 / fast_pskip=0 / chroma_qp_offset=-3 / threads=18 / lookahead_threads=3 / sliced_threads=0 / nr=0 / decimate=0 / interlaced=0 / bluray_compat=0 / constrained_intra=0 / fgo=0 / bframes=10 / b_pyramid=2 / b_adapt=2 / b_bias=0 / direct=3 / weightb=1 / open_gop=0 / weightp=2 / keyint=250 / keyint_min=23 / scenecut=40 / intra_refresh=0 / rc=2pass / mbtree=0 / bitrate=10290 / ratetol=1.0 / qcomp=0.70 / qpmin=0 / qpmax=69 / qpstep=4 / cplxblur=20.0 / qblur=0.5 / ip_ratio=1.40 / pb_ratio=1.30 / aq=1 / aq-strength=0.90 / aq-sensitivity=10.00 / aq-ifactor=1.00 / aq-pfactor=1.00 / aq-bfactor=1.00 / aq2=0
Language                                 : Japanese
Default                                  : Yes
Forced                                   : No

Audio
ID                                       : 2
Format                                   : DTS
Format/Info                              : Digital Theater Systems
Codec ID                                 : A_DTS
Duration                                 : 1 h 57 min
Bit rate mode                            : Constant
Bit rate                                 : 768 kb/s
Channel(s)                               : 6 channels
Channel positions                        : Front: L C R, Side: L R, LFE
Sampling rate                            : 48.0 kHz
Frame rate                               : 93.750 FPS (512 SPF)
Bit depth                                : 24 bits
Compression mode                         : Lossy
Stream size                              : 648 MiB (7%)
Language                                 : Japanese
Default                                  : Yes
Forced                                   : No

Text #1
ID                                       : 3
Format                                   : UTF-8
Codec ID                                 : S_TEXT/UTF8
Codec ID/Info                            : UTF-8 Plain Text
Duration                                 : 1 h 57 min
Bit rate                                 : 55 b/s
Count of elements                        : 2125
Stream size                              : 47.7 KiB (0%)
Title                                    : Simplified
Language                                 : Chinese
Default                                  : Yes
Forced                                   : No

Text #2
ID                                       : 4
Format                                   : UTF-8
Codec ID                                 : S_TEXT/UTF8
Codec ID/Info                            : UTF-8 Plain Text
Duration                                 : 1 h 57 min
Bit rate                                 : 55 b/s
Count of elements                        : 2125
Stream size                              : 47.7 KiB (0%)
Title                                    : Traditional
Language                                 : Chinese
Default                                  : No
Forced                                   : No

Menu
00:00:00.000                             : en:00:00:00.000
00:02:47.917                             : en:00:02:47.917
00:03:40.887                             : en:00:03:40.887
00:07:22.984                             : en:00:07:22.984
00:10:03.728                             : en:00:10:03.728
00:14:30.995                             : en:00:14:30.995
00:17:59.078                             : en:00:17:59.078
00:23:58.854                             : en:00:23:58.854
00:34:01.456                             : en:00:34:01.456
00:42:39.556                             : en:00:42:39.556
00:47:15.123                             : en:00:47:15.123
00:50:18.056                             : en:00:50:18.056
00:52:33.859                             : en:00:52:33.859
00:56:44.692                             : en:00:56:44.692
01:01:04.535                             : en:01:01:04.535
01:07:29.128                             : en:01:07:29.128
01:14:02.521                             : en:01:14:02.521
01:20:17.229                             : en:01:20:17.229
01:24:01.995                             : en:01:24:01.995
01:30:08.903                             : en:01:30:08.903
01:40:20.639                             : en:01:40:20.639
01:43:08.432                             : en:01:43:08.432
01:51:03.948                             : en:01:51:03.948
01:54:12.303                             : en:01:54:12.303



2e293a3a0be07cb4e5b865fc7d987300.jpg
cb36cd1c37667bfdc3a49c6f5cae09d6.jpg

12545c012859f27427d9271d583040b0.jpg
bc07ba65e900fa68c55a48b3765db49d.jpg

b0b8b6706b914573b3aa82712d96ce14.jpg
db553074df1fa5b0f02e5a48a2ae0b11.jpg



244787d0f4d1e0694b6ee13b40c5a8e5.torrent (91.6 KB, 下载次数: 6)
回复

使用道具 举报

  • TA的每日心情
    开心
    2018-8-3 17:23
  • 签到天数: 136 天

    [LV.7]常住居民III

    发表于 2018-1-13 09:59:31 | 显示全部楼层
    海报这么坑爹,评分倒是很高
    回复 支持 反对

    使用道具 举报

    您需要登录后才可以回帖 登录 | 立即注册

    本版积分规则

    Archiver|手机版|小黑屋|时代影视论坛 ( 宁ICP备16002180号-4 )

    GMT+8, 2018-8-18 14:07 , Processed in 0.129606 second(s), 29 queries , Gzip On.

    Powered by 时代影视 X3.2

    © 2001-2013 Comsenz Inc.

    快速回复 返回顶部 返回列表