时代影视论坛(NowYS)

 找回密码
 立即注册
搜索
查看: 412|回复: 1

[BT下载]Break.Night.2017.1080p.BluRay.x264.DTS-HD.MA.2.0-MT 10.3GB

[复制链接]

该用户从未签到

发表于 2018-1-12 02:55:05 | 显示全部楼层 |阅读模式
台湾UU

马上注册,结交更多好友,享用更多功能,让你轻松玩转社区。

您需要 登录 才可以下载或查看,没有帐号?立即注册

x
[2017] [欧美] [剧情] [BD-1080P][BT下载]Break.Night.2017.1080p.BluRay.x264.DTS-HD.MA.2.0-MT 10.3GB



-->

Break.Night.2017.1080p.BluRay.x264.DTS-HD.MA.2.0-MT

Break.Night.2017.1080p.BluRay.x264.DTS-HD.MA.2.0-MT

◎译  名 
◎片  名 Break.Night
◎年  代 2017
◎产  地 美国
◎类  别 剧情
◎语  言 英语
◎BT之家整理 http://www.btbtt.co
◎导  演 乔尔·苏扎 Joel Souza
◎主  演 戴文·沃克海瑟 Devon Werkheiser
      Veronica Lavery
      Jared Abrahamson
      Barbara Jean Barrielle
      Michelle Way
      Meinhard St. John
      John Gilligan


◎简  介


  A lifetime hood has one night to repay a debt to an up and coming shot caller before he can leave town, all the while trying to duck a crooked P.O., a former partner with a grudge and a ...


Video
ID                                       : 1
Format                                   : AVC
Format/Info                              : Advanced Video Codec
Format profile                           : High@L4.1
Format settings                          : CABAC / 5 Ref Frames
Format settings, CABAC                   : Yes
Format settings, ReFrames                : 5 frames
Codec ID                                 : V_MPEG4/ISO/AVC
Duration                                 : 1 h 37 min
Bit rate                                 : 13.6 Mb/s
Width                                    : 1 920 pixels
Height                                   : 816 pixels
Display aspect ratio                     : 2.35:1
Frame rate mode                          : Constant
Frame rate                               : 23.976 (24000/1001) FPS
Color space                              : YUV
Chroma subsampling                       : 4:2:0
Bit depth                                : 8 bits
Scan type                                : Progressive
Bits/(Pixel*Frame)                       : 0.363
Stream size                              : 9.29 GiB (90%)
Writing library                          : x264 core 142 r2431+42 c69a006 tMod [8-bit@4:2:0 X86]
Encoding settings                        : cabac=1 / ref=5 / deblock=1:-3:-3 / analyse=0x3:0x133 / me=umh / subme=10 / psy=1 / fade_compensate=0.00 / psy_rd=1.00:0.00 / mixed_ref=1 / me_range=48 / chroma_me=1 / trellis=2 / 8x8dct=1 / cqm=0 / deadzone=21,11 / fast_pskip=0 / chroma_qp_offset=-2 / threads=12 / lookahead_threads=1 / sliced_threads=0 / nr=0 / decimate=0 / interlaced=0 / bluray_compat=0 / constrained_intra=0 / fgo=0 / bframes=6 / b_pyramid=2 / b_adapt=2 / b_bias=0 / direct=3 / weightb=0 / open_gop=0 / weightp=2 / keyint=230 / keyint_min=22 / scenecut=40 / intra_refresh=0 / rc_lookahead=60 / rc=2pass / mbtree=1 / bitrate=13647 / ratetol=1.0 / qcomp=0.60 / qpmin=0:0:0 / qpmax=69:69:69 / qpstep=4 / cplxblur=20.0 / qblur=0.5 / vbv_maxrate=50000 / vbv_bufsize=50000 / nal_hrd=none / filler=0 / ip_ratio=1.40 / aq=1:1.00 / aq-sensitivity=10.00 / aq-factor=1.00:1.00:1.00 / aq2=0 / aq3=0
Default                                  : Yes
Forced                                   : No

Audio
ID                                       : 2
Format                                   : DTS
Format/Info                              : Digital Theater Systems
Format profile                           : MA / Core
Codec ID                                 : A_DTS
Duration                                 : 1 h 37 min
Bit rate mode                            : Variable / Constant
Bit rate                                 : 1 536 kb/s / 1 509 kb/s
Channel(s)                               : 2 channels
Channel positions                        : Front: L R
Sampling rate                            : 48.0 kHz
Frame rate                               : 93.750 FPS (512 SPF)
Bit depth                                : 24 bits
Compression mode                         : Lossless / Lossy
Stream size                              : 1.06 GiB (10%)
Title                                    : 英语
Language                                 : English
Default                                  : Yes
Forced                                   : No


f5acadfa248b477af90eccc9284ad870.jpg
eaa32f3038e23559edcdedfae805d2c8.jpg

c238a257b291f6f614b1a15860f7d2f5.jpg
c963af6a500294718432a0fabb7079d6.jpg

f1d092198898ca8239817c7022707a0e.jpg
8b7da9728b63a4fcc05b1ff916c4b198.jpg




18376bfddab2df8b0a1c7827a1b64b64.torrent (52.3 KB, 下载次数: 5)
回复

使用道具 举报

  • TA的每日心情
    开心
    2018-6-2 17:00
  • 签到天数: 133 天

    [LV.7]常住居民III

    发表于 2018-1-13 10:00:20 | 显示全部楼层
    时代影视论坛正的很棒!
    回复 支持 反对

    使用道具 举报

    您需要登录后才可以回帖 登录 | 立即注册

    本版积分规则

    Archiver|手机版|小黑屋|时代影视论坛(NowYS小组) ( 宁ICP备16002180号-4 )

    GMT+8, 2018-6-20 06:14 , Processed in 0.152393 second(s), 29 queries , Gzip On.

    Powered by 时代影视 X3.2

    © 2001-2013 Comsenz Inc.

    快速回复 返回顶部 返回列表