时代影视论坛(NowYS)

 找回密码
 立即注册
搜索
查看: 1984|回复: 0

[BT下载]The.Akron.Holy.War.2017.1080p.AMZN.WEBRip.DD2.0.x264-QOQ 6.4GB

[复制链接]

该用户从未签到

发表于 2018-1-12 20:31:17 | 显示全部楼层 |阅读模式
台湾UU

马上注册,结交更多好友,享用更多功能,让你轻松玩转社区。

您需要 登录 才可以下载或查看,没有帐号?立即注册

x
[2017] [欧美] [纪录] [WEB-1080P][BT下载]The.Akron.Holy.War.2017.1080p.AMZN.WEBRip.DD2.0.x264-QOQ 6.4GB



-->

The.Akron.Holy.War.2017.1080p.AMZN.WEBRip.DD2.0.x264-QOQ

The.Akron.Holy.War.2017.1080p.AMZN.WEBRip.DD2.0.x264-QOQ



暂无中文简介
The Akron Holy War chronicles the storied high school football rivalry between two Akron| Ohio parochial powerhouses and the city that embraces them. Documentingnearly 60 years of history| the film also takes you inside of both schools (Archbishop Hoban and St. Vincent St. Mary)| in the locker rooms and on the field duringthe week leading up to and culminating in 2016's game. The Akron Holy War depicts the true emotion of the game| on and off of the field| told exclusively from thepeople who have lived it. Whether you were involved in the first game in 1959 or last year| the sentiment holds true: The Akron Holy War is 48 minutes that lasts alifetime.


Video
ID                                       : 1
Format                                   : AVC
Format/Info                              : Advanced Video Codec
Format profile                           : High@L4
Format settings                          : CABAC / 4 Ref Frames
Format settings, CABAC                   : Yes
Format settings, ReFrames                : 4 frames
Codec ID                                 : V_MPEG4/ISO/AVC
Duration                                 : 1 h 35 min
Bit rate mode                            : Variable
Bit rate                                 : 9 407 kb/s
Maximum bit rate                         : 15.0 Mb/s
Width                                    : 1 920 pixels
Height                                   : 1 080 pixels
Display aspect ratio                     : 16:9
Frame rate mode                          : Constant
Frame rate                               : 23.976 (24000/1001) FPS
Color space                              : YUV
Chroma subsampling                       : 4:2:0
Bit depth                                : 8 bits
Scan type                                : Progressive
Bits/(Pixel*Frame)                       : 0.189
Stream size                              : 6.25 GiB (98%)
Default                                  : Yes
Forced                                   : No
Color range                              : Limited
Color primaries                          : BT.709
Transfer characteristics                 : BT.709
Matrix coefficients                      : BT.709

Audio
ID                                       : 2
Format                                   : E-AC-3
Format/Info                              : Enhanced Audio Coding 3
Codec ID                                 : A_EAC3
Duration                                 : 1 h 35 min
Bit rate mode                            : Constant
Bit rate                                 : 224 kb/s
Channel(s)                               : 2 channels
Channel positions                        : Front: L R
Sampling rate                            : 48.0 kHz
Frame rate                               : 187.500 FPS (256 SPF)
Compression mode                         : Lossy
Stream size                              : 152 MiB (2%)
Language                                 : English
Service kind                             : Complete Main
Default                                  : Yes
Forced                                   : No

Text #1
ID                                       : 3
Format                                   : UTF-8
Codec ID                                 : S_TEXT/UTF8
Codec ID/Info                            : UTF-8 Plain Text
Duration                                 : 1 h 33 min
Bit rate                                 : 95 b/s
Count of elements                        : 1839
Stream size                              : 65.0 KiB (0%)
Language                                 : English
Default                                  : No
Forced                                   : No

Text #2
ID                                       : 4
Format                                   : UTF-8
Codec ID                                 : S_TEXT/UTF8
Codec ID/Info                            : UTF-8 Plain Text
Duration                                 : 1 h 35 min
Bit rate                                 : 106 b/s
Count of elements                        : 2188
Stream size                              : 74.4 KiB (0%)
Title                                    : SDH
Language                                 : English
Default                                  : No
Forced                                   : No


3ad8b32fa778010272e6ae7dff5f08da.jpg
81434b822123db9cd80acde55aa4a288.jpg

387b851d4bead713157564fe86d4fbe6.jpg
09f7828a401b5036a95c0f3a2451e775.jpg

0cb557915498ed316709714a8fa13d51.jpg
d8dbd208f9b715c42293ff2ab4e6cc15.jpg






7a936f07d2798f4c9ff82030dc315ab0.torrent (64.5 KB, 下载次数: 2)
回复

使用道具 举报

您需要登录后才可以回帖 登录 | 立即注册

本版积分规则

Archiver|手机版|小黑屋|时代影视论坛(NowYS小组) ( 宁ICP备16002180号-4 )

GMT+8, 2018-6-22 03:34 , Processed in 0.164826 second(s), 30 queries , Gzip On.

Powered by 时代影视 X3.2

© 2001-2013 Comsenz Inc.

快速回复 返回顶部 返回列表