时代影视论坛(NowYS)

 找回密码
 立即注册
搜索
查看: 461|回复: 1

[1080p] [BT下载]波尔卡舞王 The.Polka.King.2017.1080p.WEBRip.DD5.1.x264-FUCK 3.59GB

[复制链接]

该用户从未签到

发表于 2018-1-12 23:37:39 | 显示全部楼层 |阅读模式
台湾UU

马上注册,结交更多好友,享用更多功能,让你轻松玩转社区。

您需要 登录 才可以下载或查看,没有帐号?立即注册

x
[2017] [欧美] [喜剧] [WEB-1080P][BT下载]波尔卡舞王 The.Polka.King.2017.1080p.WEBRip.DD5.1.x264-FUCK 3.59GB



-->

The.Polka.King.2017.1080p.WEBRip.DD5.1.x264-FUCK

The.Polka.King.2017.1080p.WEBRip.DD5.1.x264-FUCK

◎译  名 波尔卡舞王
◎片  名 The Polka King
◎年  代 2017
◎产  地 美国
◎类  别 剧情/喜剧/传记
◎语  言 英语
◎上映日期 2017-01-22(圣丹斯电影节)/2018-01-12(美国)
◎IMDb评分  5.6/10 from 118 users
◎IMDb链接  http://www.imdb.com/title/tt5539052/
◎BT之家整理 http://www.btbtt.co
◎片  长 95分钟
◎导  演 玛雅·福布斯 Maya Forbes / 华莱士·沃洛达斯基 Wallace Wolodarsky
◎主  演 杰克·布莱克 Jack Black
      珍妮·斯蕾特 Jenny Slate
      詹森·舒瓦兹曼 Jason Schwartzman
      罗伯特·卡普荣 Robert Capron
      威利·加森 Willie Garson
      杰基·韦佛 Jacki Weaver
      瓦妮莎·贝尔 Vanessa Bayer
      J·B·斯穆夫 J.B. Smoove


◎简  介


  该片改编自2009年讲述波尔卡舞王扬·莱万的纪录片,一代波尔卡传奇舞王扬·莱万(布莱克饰)因欺骗粉丝投资“庞氏骗局”最终锒铛入狱。


Video
ID                                       : 1
Format                                   : AVC
Format/Info                              : Advanced Video Codec
Format profile                           : Main@L4
Format settings                          : CABAC / 3 Ref Frames
Format settings, CABAC                   : Yes
Format settings, ReFrames                : 3 frames
Codec ID                                 : V_MPEG4/ISO/AVC
Duration                                 : 1 h 34 min
Bit rate mode                            : Variable
Bit rate                                 : 5 110 kb/s
Maximum bit rate                         : 7 665 kb/s
Width                                    : 1 920 pixels
Height                                   : 1 080 pixels
Display aspect ratio                     : 16:9
Frame rate mode                          : Constant
Frame rate                               : 23.976 (24000/1001) FPS
Color space                              : YUV
Chroma subsampling                       : 4:2:0
Bit depth                                : 8 bits
Scan type                                : Progressive
Bits/(Pixel*Frame)                       : 0.103
Stream size                              : 3.34 GiB (93%)
Title                                    : The.Polka.King.2017.1080p.WEBRip.DD5.1.x264-FUCK
Writing library                          : x264 core 118
Encoding settings                        : cabac=1 / ref=3 / deblock=1:0:0 / analyse=0x1:0x111 / me=umh / subme=10 / psy=1 / psy_rd=1.00:0.00 / mixed_ref=1 / me_range=24 / chroma_me=1 / trellis=2 / 8x8dct=0 / cqm=0 / deadzone=21,11 / fast_pskip=1 / chroma_qp_offset=-2 / threads=8 / sliced_threads=0 / nr=0 / decimate=1 / interlaced=0 / bluray_compat=0 / constrained_intra=0 / bframes=2 / b_pyramid=0 / b_adapt=2 / b_bias=0 / direct=3 / weightb=1 / open_gop=0 / weightp=2 / keyint=48 / keyint_min=25 / scenecut=0 / intra_refresh=0 / rc_lookahead=0 / rc=2pass / mbtree=1 / bitrate=5110 / ratetol=1.0 / qcomp=0.50 / qpmin=6 / qpmax=51 / qpstep=4 / cplxblur=20.0 / qblur=0.5 / vbv_maxrate=7665 / vbv_bufsize=10220 / nal_hrd=vbr / ip_ratio=1.40 / aq=1:1.00
Language                                 : English
Default                                  : Yes
Forced                                   : No

Audio
ID                                       : 2
Format                                   : AC-3
Format/Info                              : Audio Coding 3
Codec ID                                 : A_AC3
Duration                                 : 1 h 34 min
Bit rate mode                            : Constant
Bit rate                                 : 384 kb/s
Channel(s)                               : 6 channels
Channel positions                        : Front: L C R, Side: L R, LFE
Sampling rate                            : 48.0 kHz
Frame rate                               : 31.250 FPS (1536 SPF)
Bit depth                                : 16 bits
Compression mode                         : Lossy
Stream size                              : 258 MiB (7%)
Title                                    : The.Polka.King.2017.1080p.WEBRip.DD5.1.x264-FUCK
Language                                 : English
Service kind                             : Complete Main
Default                                  : No
Forced                                   : No

Text
ID                                       : 3
Format                                   : UTF-8
Codec ID                                 : S_TEXT/UTF8
Codec ID/Info                            : UTF-8 Plain Text
Duration                                 : 1 h 31 min
Bit rate                                 : 86 b/s
Count of elements                        : 1600
Stream size                              : 57.7 KiB (0%)
Title                                    : English
Language                                 : English
Default                                  : Yes
Forced                                   : No



c98dd1f6012cbe288fdc8373630f3668.jpg
d8e1ca6ca6242b4157bce2ac5b72123f.jpg

5c3e151d96c53dff303abc2c1b795e96.jpg
2354dc76267acbf24cf23b2d7b024d4b.jpg

862441c65dccb9a388da94164f8c2155.jpg
022bb60261cbe89bd1e9d9e838e4c8ed.jpg



54bd8e82918b631f5cb0daf952136152.torrent (72.35 KB, 下载次数: 6)
回复

使用道具 举报

  • TA的每日心情

    2018-3-29 17:43
  • 签到天数: 89 天

    [LV.6]常住居民II

    发表于 2018-1-13 11:50:34 | 显示全部楼层
    楼主分享的高清电影太好了!
    回复 支持 反对

    使用道具 举报

    您需要登录后才可以回帖 登录 | 立即注册

    本版积分规则

    Archiver|手机版|小黑屋|时代影视论坛(NowYS小组) ( 宁ICP备16002180号-4 )

    GMT+8, 2018-6-20 06:13 , Processed in 0.128324 second(s), 29 queries , Gzip On.

    Powered by 时代影视 X3.2

    © 2001-2013 Comsenz Inc.

    快速回复 返回顶部 返回列表