时代影视论坛(NowYS)

 找回密码
 立即注册
搜索
查看: 2202|回复: 3

[1080p] [BT下载]雷神3:诸神黄昏 Thor.Ragnarok.2017.1080p.WEB-DL.DD5.1.H264-FGT 5.1GB

[复制链接]

该用户从未签到

发表于 2018-1-21 20:55:24 | 显示全部楼层 |阅读模式
台湾UU
[2017] [欧美] [科幻] [WEB-1080P][BT下载]雷神3:诸神黄昏 Thor.Ragnarok.2017.1080p.WEB-DL.DD5.1.H264-FGT 5.1GB



-->

◎译  名 雷神3:诸神黄昏/雷神索尔3:诸神黄昏(台)/雷神奇侠3:诸神黄昏(港)/雷神3:诸神的黄昏
◎片  名 Thor: Ragnarok
◎年  代 2017
◎产  地 美国
◎类  别 动作/奇幻/冒险
◎语  言 英语
◎上映日期 2017-10-24(英国)/2017-11-03(美国)/2017-11-03(中国大陆)
◎IMDb评分  8.1/10 from 187,810 users
◎IMDb链接  http://www.imdb.com/title/tt3501632/
◎豆瓣评分 7.5/10 from 121,962 users
◎豆瓣链接 https://movie.douban.com/subject/25821634/
◎BT之家整理 http://www.btbtt.co
◎片  长 130分钟
◎导  演 塔伊加·维迪提 Taika Waititi
◎主  演 克里斯·海姆斯沃斯 Chris Hemsworth
      汤姆·希德勒斯顿 Tom Hiddleston
      凯特·布兰切特 Cate Blanchett
      伊德里斯·艾尔巴 Idris Elba
      杰夫·高布伦 Jeff Goldblum
      泰莎·汤普森 Tessa Thompson
      卡尔·厄本 Karl Urban
      马克·鲁弗洛 Mark Ruffalo
      安东尼·霍普金斯 Anthony Hopkins
      本尼迪克特·康伯巴奇 Benedict Cumberbatch
      塔伊加·维迪提 Taika Waititi
      瑞切尔·豪斯 Rachel House
      克兰西·布朗 Clancy Brown
      浅野忠信 Tadanobu Asano
      雷·史蒂文森 Ray Stevenson
      扎克瑞·莱维 Zachary Levi
      卢克·海姆斯沃斯 Luke Hemsworth
      马特·达蒙 Matt Damon
      山姆·尼尔 Sam Neill
      夏洛特·尼克道 Charlotte Nicdao
      斯坦·李 Stan Lee


◎简  介


  在“索科维亚战役”两年后,索尔(克里斯·海姆斯沃斯 饰)得知诸神黄昏的预言并希望全力阻止火焰巨人苏尔特尔毁灭阿斯加德。索尔与洛基(汤姆·希德勒斯顿 饰)在奇异博士(本尼迪克特·康伯巴奇 饰)的指引下找到了奥丁(安东尼·霍普金斯 饰)。奥丁向他们兄弟二人道出他们还有一位姐姐——“死亡女神”海拉(凯特·布兰切特 饰)。在一场战斗里雷神之锤被海拉所毁,索尔跌下彩虹桥而来到了萨卡星,成为阶下囚。失去了锤子的索尔被逼展开角斗士对决,而对手居然是自己的老战友绿巨人(马克·鲁弗洛 饰)。索尔必须与绿巨人、洛基等人并肩战斗,才能阻止海拉和即将到来的诸神黄昏。


◎获奖情况


  第16届美国视觉效果协会奖  (2018)
  最佳电影虚拟摄影(提名)
  最佳电影视觉效果合成(提名)


  第23届美国评论家选择电影奖  (2018)
  喜剧片最佳男主角(提名) 克里斯·海姆斯沃斯
  最佳动作片(提名)
  最佳视觉效果(提名)


  第4届豆瓣电影年度榜单  (2017)
  评分最高的科幻/动作片(提名)
  11月最受关注电影(提名)


  第3届豆瓣电影年度榜单  (2016)
  最值得期待的外语电影(提名)


Video
ID                                       : 1
Format                                   : AVC
Format/Info                              : Advanced Video Codec
Format profile                           : High@L4.1
Format settings                          : CABAC / 4 Ref Frames
Format settings, CABAC                   : Yes
Format settings, ReFrames                : 4 frames
Format settings, GOP                     : M=1, N=3
Codec ID                                 : V_MPEG4/ISO/AVC
Duration                                 : 2 h 10 min
Bit rate                                 : 5 261 kb/s
Width                                    : 1 920 pixels
Height                                   : 800 pixels
Display aspect ratio                     : 2.40:1
Frame rate mode                          : Constant
Frame rate                               : 23.976 (24000/1001) FPS
Color space                              : YUV
Chroma subsampling                       : 4:2:0
Bit depth                                : 8 bits
Scan type                                : Progressive
Bits/(Pixel*Frame)                       : 0.143
Stream size                              : 4.80 GiB (93%)
Title                                    : Thor.Ragnarok.2017.1080p.WEB-DL.DD5.1.H264-FGT
Default                                  : Yes
Forced                                   : No
Color range                              : Limited
Color primaries                          : BT.709
Transfer characteristics                 : BT.709
Matrix coefficients                      : BT.709

Audio
ID                                       : 2
Format                                   : AC-3
Format/Info                              : Audio Coding 3
Codec ID                                 : A_AC3
Duration                                 : 2 h 10 min
Bit rate mode                            : Constant
Bit rate                                 : 384 kb/s
Channel(s)                               : 6 channels
Channel positions                        : Front: L C R, Side: L R, LFE
Sampling rate                            : 48.0 kHz
Frame rate                               : 31.250 FPS (1536 SPF)
Bit depth                                : 16 bits
Compression mode                         : Lossy
Stream size                              : 359 MiB (7%)
Title                                    : Thor.Ragnarok.2017.1080p.WEB-DL.DD5.1.H264-FGT
Language                                 : English
Service kind                             : Complete Main
Default                                  : Yes
Forced                                   : No

Text
ID                                       : 3
Format                                   : UTF-8
Codec ID                                 : S_TEXT/UTF8
Codec ID/Info                            : UTF-8 Plain Text
Duration                                 : 2 h 9 min
Bit rate                                 : 49 b/s
Count of elements                        : 1568
Stream size                              : 47.1 KiB (0%)
Language                                 : English
Default                                  : Yes
Forced                                   : No

Menu
00:00:00.000                             : en:The Great Prophecy
00:06:20.000                             : en:The Tragedy Of Loki Of Asgard
00:14:11.000                             : en:A Worthy Inclusion
00:22:12.000                             : en:The Goddess Of Death
00:26:39.000                             : en:\"Are You A Fighter, Or Are You Food?\"
00:31:29.000                             : en:Heiress Apparent
00:35:03.000                             : en:The Grandmaster
00:42:49.000                             : en:The Eternal Flame
00:48:30.000                             : en:The Contest Of Champions
00:59:38.000                             : en:The Resistance
01:07:58.000                             : en:Hotheaded Fools
01:17:30.000                             : en:The Revengers
01:27:25.000                             : en:\"The Revolution Has Begun\"
01:36:08.000                             : en:Ready For War
01:42:35.000                             : en:\"Asgard Is Not A Place\"
01:49:20.000                             : en:\"What Were You The God Of Again?\"
01:54:57.000                             : en:Ragnarok
02:00:37.000                             : en:End Credits







本帖子中包含更多资源

您需要 登录 才可以下载或查看,没有帐号?立即注册

x
回复

使用道具 举报

  • TA的每日心情
    开心
    2018-2-10 11:36
  • 签到天数: 225 天

    [LV.7]常住居民III

    发表于 2018-1-22 11:07:00 | 显示全部楼层
    每天都来时代影视论坛看看有什么电影!
    回复 支持 反对

    使用道具 举报

  • TA的每日心情
    开心
    17 分钟前
  • 签到天数: 160 天

    [LV.7]常住居民III

    发表于 2018-1-22 12:05:34 | 显示全部楼层
    每天都来时代影视论坛看看有什么电影!
    回复 支持 反对

    使用道具 举报

  • TA的每日心情
    开心
    2018-1-25 16:24
  • 签到天数: 35 天

    [LV.5]常住居民I

    发表于 2018-1-25 16:28:58 | 显示全部楼层
    水形物语下不动啊啊啊啊啊
    回复 支持 反对

    使用道具 举报

    您需要登录后才可以回帖 登录 | 立即注册

    本版积分规则

    Archiver|手机版|小黑屋|时代影视论坛(NowYS小组) ( 宁ICP备16002180号-4 )

    GMT+8, 2018-2-25 13:56 , Processed in 0.121698 second(s), 11 queries , Gzip On, Memcache On.

    Powered by 时代影视 X3.2

    © 2001-2013 Comsenz Inc.

    快速回复 返回顶部 返回列表