时代影视论坛(NowYS)

 找回密码
 立即注册
搜索
查看: 2170|回复: 2

[BT下载]科洛弗档案 Cloverfield.2008.1080p.BluRay.x264.TrueHD.5.1-SWTYBLZ 9.4GB

[复制链接]

该用户从未签到

发表于 2018-2-1 16:38:50 | 显示全部楼层 |阅读模式
台湾UU

马上注册,结交更多好友,享用更多功能,让你轻松玩转社区。

您需要 登录 才可以下载或查看,没有帐号?立即注册

x
[2008] [欧美] [科幻] [BD-1080P][BT下载]科洛弗档案 Cloverfield.2008.1080p.BluRay.x264.TrueHD.5.1-SWTYBLZ 9.4GB



-->

Cloverfield.2008.1080p.BluRay.x264.TrueHD.5.1-SWTYBLZ

Cloverfield.2008.1080p.BluRay.x264.TrueHD.5.1-SWTYBLZ

◎译  名 科洛弗档案/末世凶煞(港)/苜蓿地/柯洛弗档案
◎片  名 Cloverfield
◎年  代 2008
◎产  地 美国
◎类  别 科幻/惊悚/恐怖
◎语  言 英语/俄语
◎上映日期 2008-01-18(美国)
◎IMDb评分  7.0/10 from 324,554 users
◎IMDb链接  http://www.imdb.com/title/tt1060277/
◎豆瓣评分 7.3/10 from 45,998 users
◎豆瓣链接 https://movie.douban.com/subject/2144242/
◎BT之家整理 http://www.btbtt.me/
◎片  长 85 分钟
◎导  演 马特·里夫斯 Matt Reeves
◎主  演 丽兹·卡潘 Lizzy Caplan
      杰西卡·卢卡斯 Jessica Lucas
      T·J·米勒 T.J. Miller
      迈克尔·斯塔尔·大卫 Michael Stahl-David
      迈克·沃格尔 Mike Vogel
      奥黛塔·安纳布尔 Odette Yustman


◎简  介


  好友罗布(迈克尔?斯达-大卫 Michael Stahl-David 饰)要去日本工作,他的弟弟杰森(迈克?沃格尔 Mike Vogel 饰)和朋友莉莉(杰西卡?卢卡斯 Jessica Lucas 饰)为他举办了一场欢送派对。看到杰森拎着DV只顾拍摄美女玛莲娜(丽兹?卡潘 Lizzy Caplan 饰),莉莉很恼火,指出他更加关注罗布,因为后者才是今天的主角。
  罗布姗姗来迟,并且感到没落。原来他跟好友贝丝(奥黛塔?雅丝曼 Odette Yustman 饰)的地下情刚刚告吹,这令他异常沮丧。正在此时,贝丝携新男友出现在派对现场,这令好友感到既尴尬又愤怒,而真正的地震危险正在悄悄逼近……
  本片故事是采用伪DV风格的拍摄而成。


Video
ID                                       : 1
Format                                   : AVC
Format/Info                              : Advanced Video Codec
Format profile                           : High@L4.1
Format settings                          : CABAC / 4 Ref Frames
Format settings, CABAC                   : Yes
Format settings, ReFrames                : 4 frames
Codec ID                                 : V_MPEG4/ISO/AVC
Duration                                 : 1 h 24 min
Bit rate                                 : 11.8 Mb/s
Width                                    : 1 920 pixels
Height                                   : 1 080 pixels
Display aspect ratio                     : 16:9
Frame rate mode                          : Constant
Frame rate                               : 23.976 (24000/1001) FPS
Color space                              : YUV
Chroma subsampling                       : 4:2:0
Bit depth                                : 8 bits
Scan type                                : Progressive
Bits/(Pixel*Frame)                       : 0.236
Stream size                              : 6.95 GiB (73%)
Title                                    : Cloverfield.2008.1080p.BluRay.x264.TrueHD.5.1-SWTYBLZ
Writing library                          : x264 core 148 r2748 97eaef2
Encoding settings                        : cabac=1 / ref=4 / deblock=1:-1:-1 / analyse=0x3:0x133 / me=umh / subme=10 / psy=1 / psy_rd=1.00:0.15 / mixed_ref=1 / me_range=48 / chroma_me=1 / trellis=2 / 8x8dct=1 / cqm=0 / deadzone=21,11 / fast_pskip=1 / chroma_qp_offset=-3 / threads=34 / lookahead_threads=5 / sliced_threads=0 / nr=0 / decimate=0 / interlaced=0 / bluray_compat=0 / constrained_intra=0 / bframes=8 / b_pyramid=2 / b_adapt=2 / b_bias=0 / direct=3 / weightb=1 / open_gop=0 / weightp=2 / keyint=250 / keyint_min=23 / scenecut=40 / intra_refresh=0 / rc_lookahead=60 / rc=crf / mbtree=1 / crf=18.0 / qcomp=0.60 / qpmin=0 / qpmax=69 / qpstep=4 / ip_ratio=1.40 / aq=1:1.00
Default                                  : Yes
Forced                                   : No

Audio #1
ID                                       : 2
Format                                   : TrueHD
Codec ID                                 : A_TRUEHD
Duration                                 : 1 h 24 min
Bit rate mode                            : Variable
Bit rate                                 : 3 463 kb/s
Maximum bit rate                         : 5 544 kb/s
Channel(s)                               : 6 channels
Channel positions                        : Front: L C R, Side: L R, LFE
Sampling rate                            : 48.0 kHz
Frame rate                               : 1 200.000 FPS (40 SPF)
Compression mode                         : Lossless
Stream size                              : 2.05 GiB (22%)
Title                                    : Cloverfield.2008.1080p.BluRay.x264.TrueHD.5.1-SWTYBLZ
Language                                 : English
Default                                  : Yes
Forced                                   : No

Audio #2
ID                                       : 3
Format                                   : AC-3
Format/Info                              : Audio Coding 3
Codec ID                                 : A_AC3
Duration                                 : 1 h 24 min
Bit rate mode                            : Constant
Bit rate                                 : 640 kb/s
Channel(s)                               : 6 channels
Channel positions                        : Front: L C R, Side: L R, LFE
Sampling rate                            : 48.0 kHz
Frame rate                               : 31.250 FPS (1536 SPF)
Bit depth                                : 16 bits
Compression mode                         : Lossy
Stream size                              : 388 MiB (4%)
Title                                    : Cloverfield.2008.1080p.BluRay.x264.TrueHD.5.1-SWTYBLZ
Language                                 : English
Service kind                             : Complete Main
Default                                  : No
Forced                                   : No

Text #1
ID                                       : 4
Format                                   : UTF-8
Codec ID                                 : S_TEXT/UTF8
Codec ID/Info                            : UTF-8 Plain Text
Duration                                 : 1 h 11 min
Bit rate                                 : 86 b/s
Count of elements                        : 1175
Stream size                              : 45.7 KiB (0%)
Title                                    : English-SRT
Language                                 : English
Default                                  : Yes
Forced                                   : No

Text #2
ID                                       : 5
Format                                   : PGS
Muxing mode                              : zlib
Codec ID                                 : S_HDMV/PGS
Codec ID/Info                            : Picture based subtitle format used on BDs/HD-DVDs
Duration                                 : 1 h 11 min
Bit rate                                 : 50.9 kb/s
Count of elements                        : 2350
Stream size                              : 26.1 MiB (0%)
Title                                    : English-PGS
Language                                 : English
Default                                  : No
Forced                                   : No

Text #3
ID                                       : 6
Format                                   : PGS
Muxing mode                              : zlib
Codec ID                                 : S_HDMV/PGS
Codec ID/Info                            : Picture based subtitle format used on BDs/HD-DVDs
Duration                                 : 1 h 12 min
Bit rate                                 : 57.9 kb/s
Count of elements                        : 2662
Stream size                              : 29.9 MiB (0%)
Title                                    : English-SDH-PGS
Language                                 : English
Default                                  : No
Forced                                   : No

Text #4
ID                                       : 7
Format                                   : PGS
Muxing mode                              : zlib
Codec ID                                 : S_HDMV/PGS
Codec ID/Info                            : Picture based subtitle format used on BDs/HD-DVDs
Duration                                 : 1 h 23 min
Bit rate                                 : 36.8 kb/s
Count of elements                        : 2388
Stream size                              : 22.0 MiB (0%)
Title                                    : French-PGS
Language                                 : French
Default                                  : No
Forced                                   : No

Text #5
ID                                       : 8
Format                                   : PGS
Muxing mode                              : zlib
Codec ID                                 : S_HDMV/PGS
Codec ID/Info                            : Picture based subtitle format used on BDs/HD-DVDs
Duration                                 : 1 h 23 min
Bit rate                                 : 21.3 kb/s
Count of elements                        : 1762
Stream size                              : 12.7 MiB (0%)
Title                                    : French-PGS
Language                                 : French
Default                                  : No
Forced                                   : No

Text #6
ID                                       : 9
Format                                   : PGS
Muxing mode                              : zlib
Codec ID                                 : S_HDMV/PGS
Codec ID/Info                            : Picture based subtitle format used on BDs/HD-DVDs
Duration                                 : 1 h 23 min
Bit rate                                 : 28.6 kb/s
Count of elements                        : 2098
Stream size                              : 17.1 MiB (0%)
Title                                    : Spanish-PGS
Language                                 : Spanish
Default                                  : No
Forced                                   : No

Text #7
ID                                       : 10
Format                                   : PGS
Muxing mode                              : zlib
Codec ID                                 : S_HDMV/PGS
Codec ID/Info                            : Picture based subtitle format used on BDs/HD-DVDs
Duration                                 : 1 h 23 min
Bit rate                                 : 28.6 kb/s
Count of elements                        : 2078
Stream size                              : 17.1 MiB (0%)
Title                                    : Portuguese-PGS
Language                                 : Portuguese
Default                                  : No
Forced                                   : No

Text #8
ID                                       : 11
Format                                   : PGS
Muxing mode                              : zlib
Codec ID                                 : S_HDMV/PGS
Codec ID/Info                            : Picture based subtitle format used on BDs/HD-DVDs
Duration                                 : 1 h 23 min
Bit rate                                 : 42.3 kb/s
Count of elements                        : 2388
Stream size                              : 25.3 MiB (0%)
Title                                    : German-PGS
Language                                 : German
Default                                  : No
Forced                                   : No

Text #9
ID                                       : 12
Format                                   : PGS
Muxing mode                              : zlib
Codec ID                                 : S_HDMV/PGS
Codec ID/Info                            : Picture based subtitle format used on BDs/HD-DVDs
Duration                                 : 1 h 12 min
Bit rate                                 : 23.2 kb/s
Count of elements                        : 1746
Stream size                              : 12.0 MiB (0%)
Title                                    : Japanese-PGS
Language                                 : Japanese
Default                                  : No
Forced                                   : No

Text #10
ID                                       : 13
Format                                   : PGS
Muxing mode                              : zlib
Codec ID                                 : S_HDMV/PGS
Codec ID/Info                            : Picture based subtitle format used on BDs/HD-DVDs
Duration                                 : 1 h 23 min
Bit rate                                 : 20.7 kb/s
Count of elements                        : 1748
Stream size                              : 12.4 MiB (0%)
Title                                    : Dutch-PGS
Language                                 : Dutch
Default                                  : No
Forced                                   : No

Text #11
ID                                       : 14
Format                                   : PGS
Muxing mode                              : zlib
Codec ID                                 : S_HDMV/PGS
Codec ID/Info                            : Picture based subtitle format used on BDs/HD-DVDs
Duration                                 : 1 h 23 min
Bit rate                                 : 26.8 kb/s
Count of elements                        : 2014
Stream size                              : 16.0 MiB (0%)
Title                                    : Danish-PGS
Language                                 : Danish
Default                                  : No
Forced                                   : No

Text #12
ID                                       : 15
Format                                   : PGS
Muxing mode                              : zlib
Codec ID                                 : S_HDMV/PGS
Codec ID/Info                            : Picture based subtitle format used on BDs/HD-DVDs
Duration                                 : 1 h 23 min
Bit rate                                 : 24.3 kb/s
Count of elements                        : 1924
Stream size                              : 14.5 MiB (0%)
Title                                    : Finnish-PGS
Language                                 : Finnish
Default                                  : No
Forced                                   : No

Text #13
ID                                       : 16
Format                                   : PGS
Muxing mode                              : zlib
Codec ID                                 : S_HDMV/PGS
Codec ID/Info                            : Picture based subtitle format used on BDs/HD-DVDs
Duration                                 : 1 h 23 min
Bit rate                                 : 23.2 kb/s
Count of elements                        : 1962
Stream size                              : 13.9 MiB (0%)
Title                                    : Norwegian-PGS
Language                                 : Norwegian
Default                                  : No
Forced                                   : No

Text #14
ID                                       : 17
Format                                   : PGS
Muxing mode                              : zlib
Codec ID                                 : S_HDMV/PGS
Codec ID/Info                            : Picture based subtitle format used on BDs/HD-DVDs
Duration                                 : 1 h 23 min
Bit rate                                 : 27.2 kb/s
Count of elements                        : 2002
Stream size                              : 16.2 MiB (0%)
Title                                    : Swedish-PGS
Language                                 : Swedish
Default                                  : No
Forced                                   : No

Menu
00:00:00.000                             : en:Kids! / Main Title
00:05:03.470                             : en:In The Park With Fritz
00:09:41.372                             : en:A Soul Tormented
00:15:02.360                             : en:\"Naked Closeness\"
00:19:25.831                             : en:Cops and \"Preverts\"
00:24:21.835                             : en:Blind Faith
00:29:22.719                             : en:Studying Schmudying
00:33:35.472                             : en:Bar Wars
00:36:22.639                             : en:Joy of Joyriding
00:41:25.274                             : enrugs, Sex And...
00:45:28.434                             : en:...Revolution
00:49:15.911                             : en:Life On The Road
00:53:34.545                             : en:Car Trouble
00:59:08.170                             : en:Apocalyptic Ennui
01:06:55.553                             : en:\"Far Out!\"
01:13:44.045                             : en:Mercy on Fritz / Credits


b3c5b969249b07ffe21bd05a1ad571ff.jpg
ae75afee5f18216924099e358e269eb5.jpg

0cfafdd98ee0b2e82d14cd38e11c691c.jpg
53ab5e3455888e431ce068e30ed31313.jpg

ec7498faf7b9f43d2af86370d7d92a61.jpg
7e3984a59e68526470064429852dc848.jpg



5821767fadfe87d1f63f4e012d27b5be.torrent (95.45 KB, 下载次数: 13)
回复

使用道具 举报

  • TA的每日心情
    开心
    前天 13:49
  • 签到天数: 132 天

    [LV.7]常住居民III

    发表于 2018-2-1 20:13:56 | 显示全部楼层
    时代影视论坛正的很棒!
    回复 支持 反对

    使用道具 举报

  • TA的每日心情
    开心
    昨天 10:55
  • 签到天数: 187 天

    [LV.7]常住居民III

    发表于 2018-2-2 12:26:00 | 显示全部楼层
    楼主分享的高清电影太好了!
    回复 支持 反对

    使用道具 举报

    您需要登录后才可以回帖 登录 | 立即注册

    本版积分规则

    Archiver|手机版|小黑屋|时代影视论坛(NowYS小组) ( 宁ICP备16002180号-4 )

    GMT+8, 2018-5-20 18:08 , Processed in 0.204315 second(s), 29 queries , Gzip On.

    Powered by 时代影视 X3.2

    © 2001-2013 Comsenz Inc.

    快速回复 返回顶部 返回列表