时代影视论坛(NowYS)

 找回密码
 立即注册
搜索
查看: 1994|回复: 0

[BT下载]没有极限 No.Limits.2015.1080p.BluRay.x264.DTS-HD.MA.5.1-SWTYBLZ 5.5GB

[复制链接]

该用户从未签到

发表于 2018-2-10 16:54:46 | 显示全部楼层 |阅读模式
台湾UU
[2015] [欧美] [纪录] [BD-1080P][BT下载]没有极限 No.Limits.2015.1080p.BluRay.x264.DTS-HD.MA.5.1-SWTYBLZ 5.5GB



-->

◎译  名 没有极限
◎片  名 No Limits
◎年  代 2015
◎产  地 德国
◎类  别 纪录片
◎语  言 德语/英语
◎上映日期 2015
◎IMDb评分  9.1/10 from 26 users
◎IMDb链接  http://www.imdb.com/title/tt5231726/
◎BT之家整理 http://www.btbtt.co
◎片  长 60分钟
◎导  演 Tim Hahne
◎主  演 Alex Zanardi
      Olaf Bulgrin
      Timo Glock
      Jens Marquardt
      Bruno Spengler


◎简  介


  His new adventure takes Zanardi to one of the most famous endurance races in the world: The 24 Hours of Spa-Francorchamps. He shares the cockpit of the BMW GT race car with two of the fastest men in the sport: Ex-Formula 1 driver Timo Glock and touring-car champ Bruno Spengler. They form nothing less than an all-star team of race-track pioneers, going beyond limits and limitations. Never before has a handicapped driver competed in a 24 hour race on this level with able-bodied drivers. The documentary covers the whole story: From their first get-together at BMW headquarters in Munich until the lights turn green in Belgium and the Iron Man with plastic legs limps into his racing car, changing seat and steering wheel with his teammate. But for Alex Zanardi, even after the marathon race, his mission is not over. Only four days later, he is eager to defend his white jersey at the Handcycle World Championship in Switzerland - an outrageous challenge, even for the man with no limits.




Video
ID                                       : 1
Format                                   : AVC
Format/Info                              : Advanced Video Codec
Format profile                           : High@L4.1
Format settings                          : CABAC / 5 Ref Frames
Format settings, CABAC                   : Yes
Format settings, ReFrames                : 5 frames
Codec ID                                 : V_MPEG4/ISO/AVC
Duration                                 : 1 h 2 min
Bit rate                                 : 10.7 Mb/s
Width                                    : 1 920 pixels
Height                                   : 804 pixels
Display aspect ratio                     : 2.40:1
Frame rate mode                          : Constant
Frame rate                               : 23.976 (24000/1001) FPS
Color space                              : YUV
Chroma subsampling                       : 4:2:0
Bit depth                                : 8 bits
Scan type                                : Progressive
Bits/(Pixel*Frame)                       : 0.290
Stream size                              : 4.69 GiB (84%)
Title                                    : No.Limits.2015.1080p.BluRay.x264.DTS-HD.MA.5.1-SWTYBLZ
Writing library                          : x264 core 148 r2748 97eaef2
Encoding settings                        : cabac=1 / ref=5 / deblock=1:-1:-1 / analyse=0x3:0x133 / me=umh / subme=10 / psy=1 / psy_rd=1.00:0.15 / mixed_ref=1 / me_range=48 / chroma_me=1 / trellis=2 / 8x8dct=1 / cqm=0 / deadzone=21,11 / fast_pskip=1 / chroma_qp_offset=-3 / threads=25 / lookahead_threads=4 / sliced_threads=0 / nr=0 / decimate=0 / interlaced=0 / bluray_compat=0 / constrained_intra=0 / bframes=8 / b_pyramid=2 / b_adapt=2 / b_bias=0 / direct=3 / weightb=1 / open_gop=0 / weightp=2 / keyint=250 / keyint_min=23 / scenecut=40 / intra_refresh=0 / rc_lookahead=60 / rc=crf / mbtree=1 / crf=17.0 / qcomp=0.60 / qpmin=0 / qpmax=69 / qpstep=4 / ip_ratio=1.40 / aq=1:1.00
Default                                  : Yes
Forced                                   : No

Audio
ID                                       : 2
Format                                   : DTS
Format/Info                              : Digital Theater Systems
Format profile                           : MA / Core
Codec ID                                 : A_DTS
Duration                                 : 1 h 2 min
Bit rate mode                            : Variable / Constant
Bit rate                                 : 2 048 kb/s / 1 509 kb/s
Channel(s)                               : 6 channels
Channel positions                        : Front: L C R, Side: L R, LFE
Sampling rate                            : 48.0 kHz
Frame rate                               : 93.750 FPS (512 SPF)
Bit depth                                : 16 bits
Compression mode                         : Lossless / Lossy
Stream size                              : 904 MiB (16%)
Title                                    : No.Limits.2015.1080p.BluRay.x264.DTS-HD.MA.5.1-SWTYBLZ
Language                                 : English
Default                                  : Yes
Forced                                   : No

Text #1
ID                                       : 3
Format                                   : UTF-8
Codec ID                                 : S_TEXT/UTF8
Codec ID/Info                            : UTF-8 Plain Text
Duration                                 : 56 min 2 s
Bit rate                                 : 19 b/s
Count of elements                        : 174
Stream size                              : 7.82 KiB (0%)
Title                                    : English-FORCED-SRT
Language                                 : English
Default                                  : Yes
Forced                                   : Yes

Text #2
ID                                       : 4
Format                                   : PGS
Muxing mode                              : zlib
Codec ID                                 : S_HDMV/PGS
Codec ID/Info                            : Picture based subtitle format used on BDs/HD-DVDs
Duration                                 : 56 min 2 s
Bit rate                                 : 14.7 kb/s
Count of elements                        : 348
Stream size                              : 5.89 MiB (0%)
Title                                    : English-FORCED-PGS
Language                                 : English
Default                                  : No
Forced                                   : No

Text #3
ID                                       : 5
Format                                   : PGS
Muxing mode                              : zlib
Codec ID                                 : S_HDMV/PGS
Codec ID/Info                            : Picture based subtitle format used on BDs/HD-DVDs
Duration                                 : 1 h 1 min
Bit rate                                 : 24.9 kb/s
Count of elements                        : 592
Stream size                              : 11.0 MiB (0%)
Title                                    : German-PGS
Language                                 : German
Default                                  : No
Forced                                   : No

Menu
00:00:00.000                             : en:Chapter 1
00:02:26.875                             : en:Chapter 2
00:06:57.333                             : en:Chapter 3
00:15:25.833                             : en:Chapter 4
00:21:04.583                             : en:Chapter 5
00:26:29.708                             : en:Chapter 6
00:27:45.375                             : en:Chapter 7
00:29:30.291                             : en:Chapter 8
00:31:42.500                             : en:Chapter 9
00:33:49.541                             : en:Chapter 10
00:36:27.041                             : en:Chapter 11
00:38:56.833                             : en:Chapter 12
00:41:10.458                             : en:Chapter 13
00:45:46.541                             : en:Chapter 14
00:58:12.916                             : en:Chapter 15
01:01:36.458                             : en:Chapter 16











本帖子中包含更多资源

您需要 登录 才可以下载或查看,没有帐号?立即注册

x
回复

使用道具 举报

您需要登录后才可以回帖 登录 | 立即注册

本版积分规则

Archiver|手机版|小黑屋|时代影视论坛(NowYS小组) ( 宁ICP备16002180号-4 )

GMT+8, 2018-2-25 13:55 , Processed in 0.116095 second(s), 12 queries , Gzip On, Memcache On.

Powered by 时代影视 X3.2

© 2001-2013 Comsenz Inc.

快速回复 返回顶部 返回列表