时代影视论坛(NowYS小组)

 找回密码
 立即注册
搜索
查看: 2036|回复: 0

[1080p] [BT下载]黑森灵 The.Ritual.2017.1080p.WEB-DL.DD5.1.H264-FGT 3.3GB

[复制链接]

该用户从未签到

发表于 2018-2-10 16:59:46 | 显示全部楼层 |阅读模式
台湾UU

马上注册,结交更多好友,享用更多功能,让你轻松玩转社区。

您需要 登录 才可以下载或查看,没有帐号?立即注册

x
[2017] [欧美] [恐怖] [WEB-1080P][BT下载]黑森灵 The.Ritual.2017.1080p.WEB-DL.DD5.1.H264-FGT 3.3GB



-->

The.Ritual.2017.1080p.WEB-DL.DD5.1.H264-FGT

The.Ritual.2017.1080p.WEB-DL.DD5.1.H264-FGT

◎译  名 黑森灵/黑森灵(台)
◎片  名 The Ritual
◎年  代 2017
◎产  地 英国
◎类  别 恐怖
◎语  言 英语
◎上映日期 2017-10-13(英国)
◎IMDb评分  6.3/10 from 1,181 users
◎IMDb链接  http://www.imdb.com/title/tt5638642/
◎豆瓣评分 5.2/10 from 13 users
◎豆瓣链接 https://movie.douban.com/subject/27078344/
◎BT之家整理 http://www.btbtt.co
◎片  长 94分钟
◎导  演 大卫·布鲁克纳 David Bruckner
◎主  演 拉菲·斯波 Rafe Spall
      罗伯·詹姆斯-克里尔 Rob James-Collier
      山姆·特劳顿 Sam Troughton
      阿舍尔·阿里 Arsher Ali
      Paul Reid
      Kerri McLean
      Maria Erwolter
      Jacob James Beswick
      Francesca Mula


◎简  介


  故事讲述大学里的四个老朋友徒步穿越斯堪的纳维亚的荒野,然而错误的决定让他们深入北欧神话传说中的神秘黑森林,一个古老邪恶的生物也盯上几个人。


◎获奖情况


  第20届英国独立电影奖  (2017)
  最佳视效



Video
ID                                       : 1
Format                                   : AVC
Format/Info                              : Advanced Video Codec
Format profile                           : High@L4
Format settings                          : CABAC / 4 Ref Frames
Format settings, CABAC                   : Yes
Format settings, ReFrames                : 4 frames
Codec ID                                 : V_MPEG4/ISO/AVC
Duration                                 : 1 h 34 min
Bit rate                                 : 4 629 kb/s
Width                                    : 1 920 pixels
Height                                   : 958 pixels
Display aspect ratio                     : 2.004
Frame rate mode                          : Constant
Frame rate                               : 23.976 (23976/1000) FPS
Color space                              : YUV
Chroma subsampling                       : 4:2:0
Bit depth                                : 8 bits
Scan type                                : Progressive
Bits/(Pixel*Frame)                       : 0.105
Stream size                              : 3.04 GiB (92%)
Title                                    : The.Ritual.2017.1080p.WEB-DL.DD5.1.H264-FGT
Language                                 : English
Default                                  : Yes
Forced                                   : No
Color range                              : Limited
Color primaries                          : BT.709
Transfer characteristics                 : BT.709
Matrix coefficients                      : BT.709

Audio
ID                                       : 2
Format                                   : AC-3
Format/Info                              : Audio Coding 3
Codec ID                                 : A_AC3
Duration                                 : 1 h 34 min
Bit rate mode                            : Constant
Bit rate                                 : 384 kb/s
Channel(s)                               : 6 channels
Channel positions                        : Front: L C R, Side: L R, LFE
Sampling rate                            : 48.0 kHz
Frame rate                               : 31.250 FPS (1536 SPF)
Bit depth                                : 16 bits
Compression mode                         : Lossy
Delay relative to video                  : -42 ms
Stream size                              : 258 MiB (8%)
Title                                    : The.Ritual.2017.1080p.WEB-DL.DD5.1.H264-FGT
Language                                 : English
Service kind                             : Complete Main
Default                                  : Yes
Forced                                   : No

Menu
00:00:00.000                             : en:Chapter 1
00:10:06.731                             : en:Chapter 2
00:17:04.815                             : en:Chapter 3
00:26:09.734                             : en:Chapter 4
00:36:45.411                             : en:Chapter 5
00:44:52.189                             : en:Chapter 6
00:55:33.079                             : en:Chapter 7
01:03:48.491                             : en:Chapter 8
01:12:47.363                             : en:Chapter 9
01:19:14.875                             : en:Chapter 10
01:30:11.656                             : en:Chapter 11


3364ff3798e69cd94a876b65dd814ed5.jpg
9d1860775de9d2690284898561b98865.jpg

fdb2531d086f6bd3bc69a762e8c9bba0.jpg
155242f0e0f10499407017cb9e208bb5.jpg

c54a7fb79adf878600edac821ae07f0f.jpg
04a643775d4c69a4faf1f00ce999dffa.jpg



b71600134ba6f831b45b5f4178a5fd96.torrent (66.44 KB, 下载次数: 4)
回复

使用道具 举报

您需要登录后才可以回帖 登录 | 立即注册

本版积分规则

Archiver|手机版|小黑屋|时代影视论坛 ( 宁ICP备16002180号-4 )

GMT+8, 2018-10-18 02:42 , Processed in 0.115735 second(s), 26 queries , Gzip On.

Powered by 时代影视 X3.2

© 2001-2013 Comsenz Inc.

快速回复 返回顶部 返回列表