时代影视论坛(NowYS)

 找回密码
 立即注册
搜索
查看: 982|回复: 1

[BT下载]彼生时刻 The.Time.of.Their.Lives.2017.1080p.BluRay.x264.DTS-HD.MA.5.1-MT ...

[复制链接]

该用户从未签到

发表于 2018-2-12 01:55:04 | 显示全部楼层 |阅读模式
台湾UU
[2017] [欧美] [喜剧] [BD-1080P][BT下载]彼生时刻 The.Time.of.Their.Lives.2017.1080p.BluRay.x264.DTS-HD.MA.5.1-MT 12GB



-->

◎译  名 彼生时刻
◎片  名 The Time of Their Lives
◎年  代 2017
◎产  地 英国
◎类  别 喜剧
◎语  言 英语
◎上映日期 2017-03-03(英国)
◎IMDb评分  5.8/10 from 336 users
◎IMDb链接  http://www.imdb.com/title/tt3415992/
◎BT之家整理 http://www.btbtt.co
◎导  演 罗杰·戈比 Roger Goldby
◎主  演 琼·柯琳斯 Joan Collins
      宝林·科林斯 Pauline Collins
      弗兰科·尼罗 Franco Nero
      罗纳德·皮卡普 Ronald Pickup
      Sian Reeves
      乔莉·理查德森 Joely Richardson


◎简  介


  Determined to gatecrash her ex-lover's funeral on glamorous French hideaway Ile-de-Re, former Hollywood siren Helen (Joan Collins) escapes her London retirement home with the help of Priscilla (Pauline Collins), a repressed English housewife stuck in a bad marriage. Pooling their limited resources, they hit the road together by coach, ferry, car and foot in a race to get to the funeral on time, becoming entangled in a love triangle with a reclusive French millionaire (Franco Nero) along the way. On this unforgettable journey, they find true friendship in one another - and have the time of their lives.


Video
ID                                       : 1
Format                                   : AVC
Format/Info                              : Advanced Video Codec
Format profile                           : High@L4.1
Format settings                          : CABAC / 4 Ref Frames
Format settings, CABAC                   : Yes
Format settings, ReFrames                : 4 frames
Codec ID                                 : V_MPEG4/ISO/AVC
Duration                                 : 1 h 44 min
Bit rate                                 : 13.8 Mb/s
Width                                    : 1 920 pixels
Height                                   : 1 038 pixels
Display aspect ratio                     : 1.85:1
Frame rate mode                          : Constant
Frame rate                               : 23.976 (24000/1001) FPS
Color space                              : YUV
Chroma subsampling                       : 4:2:0
Bit depth                                : 8 bits
Scan type                                : Progressive
Bits/(Pixel*Frame)                       : 0.290
Stream size                              : 10.1 GiB (79%)
Default                                  : Yes
Forced                                   : No

Audio
ID                                       : 2
Format                                   : DTS
Format/Info                              : Digital Theater Systems
Format profile                           : MA / Core
Codec ID                                 : A_DTS
Duration                                 : 1 h 44 min
Bit rate mode                            : Variable / Constant
Bit rate                                 : 3 576 kb/s / 1 509 kb/s
Channel(s)                               : 6 channels
Channel positions                        : Front: L C R, Side: L R, LFE
Sampling rate                            : 48.0 kHz
Frame rate                               : 93.750 FPS (512 SPF)
Bit depth                                : 24 bits
Compression mode                         : Lossless / Lossy
Stream size                              : 2.60 GiB (21%)
Default                                  : Yes
Forced                                   : No







本帖子中包含更多资源

您需要 登录 才可以下载或查看,没有帐号?立即注册

x
回复

使用道具 举报

  • TA的每日心情
    开心
    2 小时前
  • 签到天数: 54 天

    [LV.5]常住居民I

    发表于 2018-2-14 10:58:27 | 显示全部楼层
    时代影视论坛正的很棒!
    回复 支持 反对

    使用道具 举报

    您需要登录后才可以回帖 登录 | 立即注册

    本版积分规则

    Archiver|手机版|小黑屋|时代影视论坛(NowYS小组) ( 宁ICP备16002180号-4 )

    GMT+8, 2018-2-25 13:56 , Processed in 0.120569 second(s), 12 queries , Gzip On, Memcache On.

    Powered by 时代影视 X3.2

    © 2001-2013 Comsenz Inc.

    快速回复 返回顶部 返回列表