时代影视论坛(NowYS)

 找回密码
 立即注册
搜索
查看: 1615|回复: 1

[BT下载]关原之战[内封中字]Sekigahara.2017.1080p.BluRay.x264.DTS-WiKi 15GB

[复制链接]

该用户从未签到

发表于 2018-2-12 14:03:17 | 显示全部楼层 |阅读模式
台湾UU
[2017] [日本] [历史] [BD-1080P][BT下载]关原之战[内封中字]Sekigahara.2017.1080p.BluRay.x264.DTS-WiKi 15GB



-->
◎译  名 关原之战
◎片  名 関ヶ原
◎年  代 2017
◎产  地 日本
◎类  别 历史/战争
◎语  言 日语
◎上映日期 2017-08-26(日本)
◎IMDb评分  6.8/10 from 86 users
◎IMDb链接  http://www.imdb.com/title/tt5954284/
◎豆瓣评分 6.9/10 from 232 users
◎豆瓣链接 https://movie.douban.com/subject/26852888/
◎BT之家整理 http://www.btbtt.me/
◎片  长 149分钟
◎导  演 原田真人 Masato Harada
◎主  演 冈田准一 Junichi Okada
      役所广司 K?ji Yakusho
      有村架纯 Kasumi Arimura
      山村健 Ken Yamamura
      伊藤步 Ayumi Ito
      东出昌大 Masahiro Higashide
      磨赤儿 Akaji Maro
      泷藤贤一 Kenichi Takito
      中越典子 Noriko Nakagoshi
      平岳大 Takehiro Hira
      西冈德马 Tokuma Nishioka
      三浦诚己 Masaki Miura
      木村绿子 Midoriko Kimura


◎简  介


  讲述日本战国时代末期发生的一场“决定天下”的战役,交战双方为德川家康领下的东军以及石田三成领导组成的西军。最终,在西军将领小早川秀秋叛变的情况下,这场战争在一天内即分出了胜负,德川家康取得了统治权,三年后成立德川幕府。


◎获奖情况


  第42届报知映画赏  (2017)
  最佳男配角 役所广司



Video
ID                                       : 1
Format                                   : AVC
Format/Info                              : Advanced Video Codec
Format profile                           : High@L4.1
Format settings                          : CABAC / 5 Ref Frames
Format settings, CABAC                   : Yes
Format settings, ReFrames                : 5 frames
Codec ID                                 : V_MPEG4/ISO/AVC
Duration                                 : 2 h 29 min
Bit rate                                 : 12.9 Mb/s
Width                                    : 1 920 pixels
Height                                   : 804 pixels
Display aspect ratio                     : 2.40:1
Frame rate mode                          : Constant
Frame rate                               : 23.976 (24000/1001) FPS
Color space                              : YUV
Chroma subsampling                       : 4:2:0
Bit depth                                : 8 bits
Scan type                                : Progressive
Bits/(Pixel*Frame)                       : 0.349
Stream size                              : 13.4 GiB (90%)
Writing library                          : x264 core 129 r2245+704+36 8e61944 tMod+MixAQ [8-bit@4:2:0 X86_64]
Encoding settings                        : cabac=1 / ref=5 / deblock=1:-3:-3 / analyse=0x3:0x133 / me=umh / subme=11 / psy=1 / fade_compensate=0.00 / psy_rd=1.05:0.10 / mixed_ref=1 / me_range=64 / chroma_me=1 / trellis=2 / 8x8dct=1 / cqm=0 / deadzone=21,11 / fast_pskip=0 / chroma_qp_offset=-3 / threads=18 / lookahead_threads=3 / sliced_threads=0 / nr=0 / decimate=0 / interlaced=0 / bluray_compat=0 / constrained_intra=0 / fgo=0 / bframes=10 / b_pyramid=2 / b_adapt=2 / b_bias=0 / direct=3 / weightb=1 / open_gop=0 / weightp=2 / keyint=250 / keyint_min=23 / scenecut=40 / intra_refresh=0 / rc_lookahead=80 / rc=2pass / mbtree=1 / bitrate=12900 / ratetol=1.0 / qcomp=0.70 / qpmin=0 / qpmax=69 / qpstep=4 / cplxblur=20.0 / qblur=0.5 / ip_ratio=1.40 / aq=1 / aq-strength=0.85 / aq-sensitivity=10.00 / aq-ifactor=1.00 / aq-pfactor=1.00 / aq-bfactor=1.00 / aq2=0
Language                                 : Japanese
Default                                  : Yes
Forced                                   : No

Audio
ID                                       : 2
Format                                   : DTS
Format/Info                              : Digital Theater Systems
Codec ID                                 : A_DTS
Duration                                 : 2 h 29 min
Bit rate mode                            : Constant
Bit rate                                 : 1 509 kb/s
Channel(s)                               : 6 channels
Channel positions                        : Front: L C R, Side: L R, LFE
Sampling rate                            : 48.0 kHz
Frame rate                               : 93.750 FPS (512 SPF)
Bit depth                                : 24 bits
Compression mode                         : Lossy
Stream size                              : 1.57 GiB (10%)
Language                                 : Japanese
Default                                  : Yes
Forced                                   : No

Text #1
ID                                       : 3
Format                                   : UTF-8
Codec ID                                 : S_TEXT/UTF8
Codec ID/Info                            : UTF-8 Plain Text
Duration                                 : 2 h 24 min
Bit rate                                 : 50 b/s
Count of elements                        : 1859
Stream size                              : 53.0 KiB (0%)
Title                                    : Simplified
Language                                 : Chinese
Default                                  : No
Forced                                   : No

Text #2
ID                                       : 4
Format                                   : UTF-8
Codec ID                                 : S_TEXT/UTF8
Codec ID/Info                            : UTF-8 Plain Text
Duration                                 : 2 h 24 min
Bit rate                                 : 50 b/s
Count of elements                        : 1859
Stream size                              : 53.0 KiB (0%)
Title                                    : Traditional
Language                                 : Chinese
Default                                  : Yes
Forced                                   : No

Menu
00:00:00.000                             : en:00:00:00.000
00:10:29.795                             : en:00:10:29.795
00:19:34.673                             : en:00:19:34.673
00:28:17.904                             : en:00:28:17.904
00:42:51.193                             : en:00:42:51.193
00:54:37.649                             : en:00:54:37.649
01:06:42.164                             : en:01:06:42.164
01:20:21.024                             : en:01:20:21.024
01:33:31.105                             : en:01:33:31.105
01:44:42.234                             : en:01:44:42.234
02:00:26.761                             : en:02:00:26.761
02:16:33.602                             : en:02:16:33.602
02:29:02.099                             : en:02:29:02.099









本帖子中包含更多资源

您需要 登录 才可以下载或查看,没有帐号?立即注册

x
回复

使用道具 举报

  • TA的每日心情
    开心
    前天 17:19
  • 签到天数: 53 天

    [LV.5]常住居民I

    发表于 2018-2-14 10:57:47 | 显示全部楼层
    感谢楼主分享精彩电影!
    回复 支持 反对

    使用道具 举报

    您需要登录后才可以回帖 登录 | 立即注册

    本版积分规则

    Archiver|手机版|小黑屋|时代影视论坛(NowYS小组) ( 宁ICP备16002180号-4 )

    GMT+8, 2018-2-24 20:02 , Processed in 0.118398 second(s), 12 queries , Gzip On, Memcache On.

    Powered by 时代影视 X3.2

    © 2001-2013 Comsenz Inc.

    快速回复 返回顶部 返回列表