时代影视论坛(NowYS小组)

 找回密码
 立即注册
搜索
查看: 878|回复: 1

[BT下载]狂野太平洋 2015.DOCU.1080p.BluRay.x264.DTS-SWTYBLZ 5.23GB

[复制链接]

该用户从未签到

发表于 2018-2-12 14:03:19 | 显示全部楼层 |阅读模式
台湾UU

马上注册,结交更多好友,享用更多功能,让你轻松玩转社区。

您需要 登录 才可以下载或查看,没有帐号?立即注册

x
[2015] [欧美] [纪录] [BD-1080P][BT下载]狂野太平洋 2015.DOCU.1080p.BluRay.x264.DTS-SWTYBLZ 5.23GB



-->

The.Wild.Pacific.2015.DOCU.1080p.BluRay.x264.DTS-SWTYBLZ

The.Wild.Pacific.2015.DOCU.1080p.BluRay.x264.DTS-SWTYBLZ

◎译  名 狂野太平洋
◎片  名 The Wild Pacific
◎年  代 2015
◎产  地 英国
◎类  别 记录
◎语  言 英语
◎IMDb评分  7.5/10 from 16 users
◎IMDb链接  http://www.imdb.com/title/tt5912024/
◎BT之家整理 http://www.btbtt.me/
◎片  长 52分钟
◎导  演 Michael Watchulonis


◎简  介


  It is the largest body of water on earth| covering nearly 30% of our planet. Experience a vast ecosystem that is home to a stunning menagerie of creatures.


Video
ID                                       : 1
Format                                   : AVC
Format/Info                              : Advanced Video Codec
Format profile                           : High@L4.1
Format settings                          : CABAC / 5 Ref Frames
Format settings, CABAC                   : Yes
Format settings, ReFrames                : 5 frames
Codec ID                                 : V_MPEG4/ISO/AVC
Duration                                 : 52 min 11 s
Bit rate                                 : 13.2 Mb/s
Width                                    : 1 920 pixels
Height                                   : 1 080 pixels
Display aspect ratio                     : 16:9
Frame rate mode                          : Constant
Frame rate                               : 23.976 (24000/1001) FPS
Color space                              : YUV
Chroma subsampling                       : 4:2:0
Bit depth                                : 8 bits
Scan type                                : Progressive
Bits/(Pixel*Frame)                       : 0.265
Stream size                              : 4.81 GiB (92%)
Title                                    : The.Wild.Pacific.2015.DOCU.1080p.BluRay.x264.DTS-SWTYBLZ
Writing library                          : x264 core 148 r2795M aaa9aa8
Encoding settings                        : cabac=1 / ref=5 / deblock=1:0:0 / analyse=0x3:0x133 / me=umh / subme=10 / psy=1 / psy_rd=1.00:0.00 / mixed_ref=1 / me_range=24 / chroma_me=1 / trellis=2 / 8x8dct=1 / cqm=0 / deadzone=21,11 / fast_pskip=1 / chroma_qp_offset=-2 / threads=24 / lookahead_threads=4 / sliced_threads=0 / nr=0 / decimate=1 / interlaced=0 / bluray_compat=0 / constrained_intra=0 / bframes=8 / b_pyramid=2 / b_adapt=2 / b_bias=0 / direct=3 / weightb=1 / open_gop=0 / weightp=2 / keyint=240 / keyint_min=24 / scenecut=40 / intra_refresh=0 / rc_lookahead=60 / rc=crf / mbtree=1 / crf=19.0 / qcomp=0.60 / qpmin=0 / qpmax=69 / qpstep=4 / ip_ratio=1.40 / aq=1:1.00
Language                                 : English
Default                                  : Yes
Forced                                   : No

Audio
ID                                       : 2
Format                                   : DTS
Format/Info                              : Digital Theater Systems
Codec ID                                 : A_DTS
Duration                                 : 52 min 11 s
Bit rate mode                            : Constant
Bit rate                                 : 1 152 kb/s
Channel(s)                               : 6 channels
Channel positions                        : Front: L C R, Side: L R, LFE
Sampling rate                            : 48.0 kHz
Frame rate                               : 93.750 FPS (512 SPF)
Bit depth                                : 16 bits
Compression mode                         : Lossy
Stream size                              : 430 MiB (8%)
Title                                    : The.Wild.Pacific.2015.DOCU.1080p.BluRay.x264.DTS-SWTYBLZ
Language                                 : English
Default                                  : Yes
Forced                                   : No

Menu
00:00:00.000                             : :Chapter 1
00:01:01.811                             : :Chapter 2
00:07:54.140                             : :Chapter 3
00:20:34.858                             : :Chapter 4
00:32:30.239                             : :Chapter 5
00:43:56.133                             : :Chapter 6


9d6f808898e8596e06da7063cce61eeb.jpg
0448d49fa838c72793e6701e4e82b8f6.jpg

af9f269c7a8ee363a6200b1fac9accfe.jpg
9d7932edeb8a8bbd286a7a06f0394c9e.jpg

b431685147e6898b51ef827a625497ed.jpg
ebad5ba9b3c88d640133cbc47a2f00e1.jpg



a6d8734cb2bb1ad16154585e85959c21.torrent (52.8 KB, 下载次数: 7)
回复

使用道具 举报

  • TA的每日心情
    开心
    3 天前
  • 签到天数: 139 天

    [LV.7]常住居民III

    发表于 2018-2-14 10:57:29 | 显示全部楼层
    感谢楼主分享精彩电影!
    回复 支持 反对

    使用道具 举报

    您需要登录后才可以回帖 登录 | 立即注册

    本版积分规则

    Archiver|手机版|小黑屋|时代影视论坛 ( 宁ICP备16002180号-4 )

    GMT+8, 2018-10-18 01:54 , Processed in 0.116903 second(s), 25 queries , Gzip On.

    Powered by 时代影视 X3.2

    © 2001-2013 Comsenz Inc.

    快速回复 返回顶部 返回列表