时代影视论坛(NowYS小组)

 找回密码
 立即注册
搜索
查看: 2121|回复: 2

[BT下载]北极奇观 2014.DOCU.1080p.BluRay.x264.TrueHD.7.1.Atmos-SWTYBLZ 4.9GB

[复制链接]

该用户从未签到

发表于 2018-2-12 19:59:37 | 显示全部楼层 |阅读模式
台湾UU

马上注册,结交更多好友,享用更多功能,让你轻松玩转社区。

您需要 登录 才可以下载或查看,没有帐号?立即注册

x
[2014] [欧美] [纪录] [BD-1080P][BT下载]北极奇观 2014.DOCU.1080p.BluRay.x264.TrueHD.7.1.Atmos-SWTYBLZ 4.9GB



-->

Wonders.of.the.Arctic.2014.DOCU.1080p.BluRay.x264.TrueHD.7.1.Atmos-SWTYBLZ

Wonders.of.the.Arctic.2014.DOCU.1080p.BluRay.x264.TrueHD.7.1.Atmos-SWTYBLZ

◎译  名 北极奇观/奇幻冰極(港)
◎片  名 Wonders of the Arctic
◎年  代 2014
◎产  地 加拿大
◎类  别 纪录片
◎语  言 英语
◎上映日期 2014-03-06(加拿大)
◎IMDb评分  7.5/10 from 33 users
◎IMDb链接  http://www.imdb.com/title/tt3554178/
◎BT之家整理 http://www.btbtt.pw
◎片  长 40
◎导  演 David Lickley
◎主  演 Victor Garber


◎简  介


  北极地区总是带着神秘色彩,也是神话传说中的迷人胜境。然而,这里每年有九个月被冰雪覆盖,生存环境比世上其他地方更为严苛。这里乍似冷酷无情,原来却是不少物种的家园 ——北极熊、弓头鲸、一角鲸、厚嘴海鸦,还有人类皆居于此,北冰洋部分水域更是全球最丰饶的海洋生态系统之一。
  数千年来,因纽特人和前居者适应了北极地区,并在此落地生根。他们在冰原上寻找食物,互相交往,起居作息。为了生存,因纽特人还发展出一些特别的技能,他们透过观察冰雪反照在云层上的光,便能判断在远处有没有开阔的水域。这些传统智慧正好帮助前来研究的科学家。
  现时,北极地区已成为研究重点,科学家揭露了全球人类活动正如何影响这片遥远脆弱的地方。全球暖化对北极地区的影响比其他地方更为严重,北冰洋上的永久浮冰已缩减近百分之七十,如情况持续,终有一天北冰洋在夏季将完全无冰。世代生长在这片冰天雪地的动植物和居民能否适应这种变化?
  全天域电影《奇幻冰极》在探访这片奇妙异境之余,更会介绍冰对于北极地区和全球各地所发挥的重要作用。大家齐来与科学家和因纽特人一起,细察这个冰雪王国。


Video
ID                                       : 1
Format                                   : AVC
Format/Info                              : Advanced Video Codec
Format profile                           : High@L4.1
Format settings                          : CABAC / 5 Ref Frames
Format settings, CABAC                   : Yes
Format settings, ReFrames                : 5 frames
Codec ID                                 : V_MPEG4/ISO/AVC
Duration                                 : 41 min 41 s
Bit rate                                 : 12.0 Mb/s
Width                                    : 1 920 pixels
Height                                   : 1 040 pixels
Display aspect ratio                     : 1.85:1
Frame rate mode                          : Constant
Frame rate                               : 23.976 (23976/1000) FPS
Color space                              : YUV
Chroma subsampling                       : 4:2:0
Bit depth                                : 8 bits
Scan type                                : Progressive
Bits/(Pixel*Frame)                       : 0.250
Stream size                              : 3.49 GiB (70%)
Title                                    : Wonders.of.the.Arctic.2014.DOCU.1080p.BluRay.x264.TrueHD.7.1.Atmos-SWTYBLZ
Writing library                          : x264 core 148 r2795M aaa9aa8
Encoding settings                        : cabac=1 / ref=5 / deblock=1:0:0 / analyse=0x3:0x133 / me=umh / subme=10 / psy=1 / psy_rd=1.00:0.00 / mixed_ref=1 / me_range=24 / chroma_me=1 / trellis=2 / 8x8dct=1 / cqm=0 / deadzone=21,11 / fast_pskip=1 / chroma_qp_offset=-2 / threads=24 / lookahead_threads=4 / sliced_threads=0 / nr=0 / decimate=1 / interlaced=0 / bluray_compat=0 / constrained_intra=0 / bframes=8 / b_pyramid=2 / b_adapt=2 / b_bias=0 / direct=3 / weightb=1 / open_gop=0 / weightp=2 / keyint=240 / keyint_min=24 / scenecut=40 / intra_refresh=0 / rc_lookahead=60 / rc=crf / mbtree=1 / crf=17.0 / qcomp=0.60 / qpmin=0 / qpmax=69 / qpstep=4 / ip_ratio=1.40 / aq=1:1.00
Default                                  : Yes
Forced                                   : No

Audio #1
ID                                       : 2
Format                                   : TrueHD
Format profile                           : TrueHD+Atmos / TrueHD
Codec ID                                 : A_TRUEHD
Duration                                 : 41 min 41 s
Bit rate mode                            : Variable
Bit rate                                 : 4 450 kb/s
Maximum bit rate                         : 6 408 kb/s
Channel(s)                               : Object Based / 8 channels
Channel positions                        : Object Based / Front: L C R, Side: L R, Back: L R, LFE
Sampling rate                            :  / 48.0 kHz
Frame rate                               : 1 200.000 FPS (40 SPF)
Compression mode                         : Lossless
Stream size                              : 1.30 GiB (26%)
Title                                    : Wonders.of.the.Arctic.2014.DOCU.1080p.BluRay.x264.TrueHD.7.1.Atmos-SWTYBLZ
Language                                 : English
Default                                  : Yes
Forced                                   : No

Audio #2
ID                                       : 3
Format                                   : AC-3
Format/Info                              : Audio Coding 3
Codec ID                                 : A_AC3
Duration                                 : 41 min 41 s
Bit rate mode                            : Constant
Bit rate                                 : 640 kb/s
Channel(s)                               : 6 channels
Channel positions                        : Front: L C R, Side: L R, LFE
Sampling rate                            : 48.0 kHz
Frame rate                               : 31.250 FPS (1536 SPF)
Bit depth                                : 16 bits
Compression mode                         : Lossy
Stream size                              : 191 MiB (4%)
Title                                    : Wonders.of.the.Arctic.2014.DOCU.1080p.BluRay.x264.TrueHD.7.1.Atmos-SWTYBLZ
Language                                 : English
Service kind                             : Complete Main
Default                                  : No
Forced                                   : No

Menu
00:00:00.000                             : en:Chapter 1
00:01:42.310                             : en:Chapter 2
00:02:50.503                             : en:Chapter 3
00:05:04.304                             : en:Chapter 4
00:06:57.542                             : en:Chapter 5
00:08:21.918                             : en:Chapter 6
00:10:06.606                             : en:Chapter 7
00:13:09.789                             : en:Chapter 8
00:14:42.715                             : en:Chapter 9
00:15:49.782                             : en:Chapter 10
00:17:21.790                             : en:Chapter 11
00:20:06.455                             : en:Chapter 12
00:24:32.721                             : en:Chapter 13
00:25:48.088                             : en:Chapter 14
00:29:09.998                             : en:Chapter 15
00:36:06.873                             : en:Chapter 16
00:37:12.146                             : en:Chapter 17
00:38:35.021                             : en:Chapter 18


724cb6bd67a7bfd5f3e72a6d000395be.jpg
17cad3da3361bac4656935e661994961.jpg

cdaca65107913bd4f9df5d8fb4e6ed8e.jpg

72bd14b1e3b1d996186bb5afd98e6347.jpg
189ce05ef97f8192c51d0bdcbf6289f1.jpg



de5f7cb19b5c5ce27661ccd2b34b1da2.torrent (100.33 KB, 下载次数: 5)
回复

使用道具 举报

  • TA的每日心情
    无聊
    昨天 09:38
  • 签到天数: 271 天

    [LV.8]以坛为家I

    发表于 2018-2-13 06:44:33 | 显示全部楼层
    Thanks for sharing
    回复 支持 反对

    使用道具 举报

  • TA的每日心情
    开心
    3 天前
  • 签到天数: 139 天

    [LV.7]常住居民III

    发表于 2018-2-14 10:53:49 | 显示全部楼层
    感谢楼主分享精彩电影!
    回复 支持 反对

    使用道具 举报

    您需要登录后才可以回帖 登录 | 立即注册

    本版积分规则

    Archiver|手机版|小黑屋|时代影视论坛 ( 宁ICP备16002180号-4 )

    GMT+8, 2018-10-18 02:36 , Processed in 1.128650 second(s), 25 queries , Gzip On.

    Powered by 时代影视 X3.2

    © 2001-2013 Comsenz Inc.

    快速回复 返回顶部 返回列表