时代影视论坛(NowYS小组)

 找回密码
 立即注册
搜索
查看: 1987|回复: 0

[1080p] [BT下载]魂飞破胆 Camp.Blood.7.It.Kills.2017.1080p.AMZN.WEBRip.DD2.0.x264-QOQ 3.8 ...

[复制链接]

该用户从未签到

发表于 2018-2-13 16:29:43 | 显示全部楼层 |阅读模式
台湾UU

马上注册,结交更多好友,享用更多功能,让你轻松玩转社区。

您需要 登录 才可以下载或查看,没有帐号?立即注册

x
[2017] [欧美] [恐怖] [WEB-1080P][BT下载]魂飞破胆 Camp.Blood.7.It.Kills.2017.1080p.AMZN.WEBRip.DD2.0.x264-QOQ 3.8GB



-->

Camp.Blood.7.It.Kills.2017.1080p.AMZN.WEBRip.DD2.0.x264-QOQ

Camp.Blood.7.It.Kills.2017.1080p.AMZN.WEBRip.DD2.0.x264-QOQ

◎译  名 魂飞破胆 7
◎片  名 It Kills
◎年  代 2017
◎产  地 美国
◎类  别 动作/惊悚/恐怖
◎语  言 英语
◎上映日期 2017(美国)
◎IMDb评分  3.3/10 from 34 users
◎IMDb链接  http://www.imdb.com/title/tt7546024/
◎BT之家整理 http://www.btbtt.co
◎片  长 69分钟
◎导  演 Mark Polonia
◎主  演 Greta Volkova


◎简  介


  A group of college kids on Fall break find themselves in a bad situation when they become stranded at the infamous Camp Blood.


Video
ID                                       : 1
Format                                   : AVC
Format/Info                              : Advanced Video Codec
Format profile                           : High@L4
Format settings                          : CABAC / 4 Ref Frames
Format settings, CABAC                   : Yes
Format settings, ReFrames                : 4 frames
Codec ID                                 : V_MPEG4/ISO/AVC
Duration                                 : 1 h 2 min
Bit rate mode                            : Variable
Bit rate                                 : 8 484 kb/s
Maximum bit rate                         : 15.0 Mb/s
Width                                    : 1 920 pixels
Height                                   : 1 080 pixels
Display aspect ratio                     : 16:9
Frame rate mode                          : Constant
Frame rate                               : 29.970 (30000/1001) FPS
Color space                              : YUV
Chroma subsampling                       : 4:2:0
Bit depth                                : 8 bits
Scan type                                : Progressive
Bits/(Pixel*Frame)                       : 0.137
Stream size                              : 3.72 GiB (97%)
Default                                  : Yes
Forced                                   : No
Color range                              : Limited
Color primaries                          : BT.709
Transfer characteristics                 : BT.709
Matrix coefficients                      : BT.709

Audio
ID                                       : 2
Format                                   : E-AC-3
Format/Info                              : Enhanced Audio Coding 3
Codec ID                                 : A_EAC3
Duration                                 : 1 h 2 min
Bit rate mode                            : Constant
Bit rate                                 : 224 kb/s
Channel(s)                               : 2 channels
Channel positions                        : Front: L R
Sampling rate                            : 48.0 kHz
Frame rate                               : 187.500 FPS (256 SPF)
Compression mode                         : Lossy
Stream size                              : 101 MiB (3%)
Language                                 : English
Service kind                             : Complete Main
Default                                  : Yes
Forced                                   : No

Text #1
ID                                       : 3
Format                                   : UTF-8
Codec ID                                 : S_TEXT/UTF8
Codec ID/Info                            : UTF-8 Plain Text
Duration                                 : 59 min 17 s
Bit rate                                 : 45 b/s
Count of elements                        : 617
Stream size                              : 19.9 KiB (0%)
Language                                 : English
Default                                  : No
Forced                                   : No

Text #2
ID                                       : 4
Format                                   : UTF-8
Codec ID                                 : S_TEXT/UTF8
Codec ID/Info                            : UTF-8 Plain Text
Duration                                 : 1 h 1 min
Bit rate                                 : 51 b/s
Count of elements                        : 783
Stream size                              : 23.1 KiB (0%)
Title                                    : SDH
Language                                 : English
Default                                  : No
Forced                                   : No


b1c4c6145b6e3f7d2c63c3969bea5638.jpg
f3c113e57ef8a8430535f1468772c2d0.jpg

92d685f378899821aea7d1a071d22042.jpg
a05ce3d9482eef990a84114b696d2cbc.jpg

88dbc35ca387be13b2dd4e00a5a4af50.jpg
e730a76342580dcfb5914c45a416dc3f.jpg



9370645429711f82d4a46a785b99ac86.torrent (77.02 KB, 下载次数: 7)
回复

使用道具 举报

您需要登录后才可以回帖 登录 | 立即注册

本版积分规则

Archiver|手机版|小黑屋|时代影视论坛 ( 宁ICP备16002180号-4 )

GMT+8, 2018-8-16 11:55 , Processed in 0.128141 second(s), 30 queries , Gzip On.

Powered by 时代影视 X3.2

© 2001-2013 Comsenz Inc.

快速回复 返回顶部 返回列表