时代影视论坛(NowYS小组)

 找回密码
 立即注册
搜索
查看: 941|回复: 0

[BT下载]陌路之恋 2017.1080p.BluRay.REMUX.AVC.DTS-HD.MA.5.1-FGT 33GB

[复制链接]

该用户从未签到

发表于 2018-2-14 01:28:46 | 显示全部楼层 |阅读模式
台湾UU

马上注册,结交更多好友,享用更多功能,让你轻松玩转社区。

您需要 登录 才可以下载或查看,没有帐号?立即注册

x
[2017] [欧美] [剧情] [Remux][BT下载]陌路之恋 2017.1080p.BluRay.REMUX.AVC.DTS-HD.MA.5.1-FGT 33GB



-->

Same.Kind.of.Different.as.Me.2017.1080p.BluRay.REMUX.AVC.DTS-HD.MA.5.1-FGT

Same.Kind.of.Different.as.Me.2017.1080p.BluRay.REMUX.AVC.DTS-HD.MA.5.1-FGT

◎译  名 陌路之恋/绅士与流浪汉(台)
◎片  名 Same Kind of Different as Me
◎年  代 2017
◎产  地 美国
◎类  别 剧情
◎语  言 英语
◎上映日期 2017-10-20(美国)
◎豆瓣评分 7.1/10 from 50 users
◎豆瓣链接 https://movie.douban.com/subject/3068574/
◎BT之家整理 http://www.btbtt.co
◎片  长 119分钟
◎导  演 迈克尔·卡尼 Michael Carney
◎主  演 蕾妮·齐薇格 Renée Zellweger
      强·沃特 Jon Voight
      杰曼·翰苏 Djimon Hounsou
      格雷戈·金尼尔 Greg Kinnear
      奥利维亚·霍尔特 Olivia Holt
      丹娜·格瑞尔 Dana Gourrier
      拉腊·格赖斯 Lara Grice
      佩顿·威奇 Peyton Wich
      安·马奥尼 Ann Mahoney
      米凯尔·珊农·詹金斯 Mykel Shannon Jenkins
      斯蒂芬妮·利·施朗德 Stephanie Leigh Schlund
      托马斯·弗兰西斯·墨菲 Thomas Francis Murphy
      丹尼尔·扎卡帕 Daniel Zacapa
      耐尔斯·斯蒂尔 Nyles Steele
      托内亚·斯图尔特 Tonea Stewart
      大卫·詹森 David Jensen


◎简  介


  本片改编自丹佛·摩尔与朗·霍尔合着的纪实小说。
  这是一则真实故事,生活于上流社会,事业有成的国际艺术画商朗·霍尔,某天听到妻子叙说她神奇的梦,这个梦将开启他与世界上另一个角落的男人,建立友谊并陪伴他度过人生最伤痛的时刻。


Video
ID                                       : 1
Format                                   : AVC
Format/Info                              : Advanced Video Codec
Format profile                           : High@L4.1
Format settings                          : CABAC / 4 Ref Frames
Format settings, CABAC                   : Yes
Format settings, ReFrames                : 4 frames
Codec ID                                 : V_MPEG4/ISO/AVC
Duration                                 : 1 h 59 min
Bit rate mode                            : Variable
Bit rate                                 : 32.4 Mb/s
Maximum bit rate                         : 37.8 Mb/s
Width                                    : 1 920 pixels
Height                                   : 1 080 pixels
Display aspect ratio                     : 16:9
Frame rate mode                          : Constant
Frame rate                               : 23.976 (24000/1001) FPS
Color space                              : YUV
Chroma subsampling                       : 4:2:0
Bit depth                                : 8 bits
Scan type                                : Progressive
Bits/(Pixel*Frame)                       : 0.652
Stream size                              : 27.0 GiB (81%)
Title                                    : Same.Kind.of.Different.as.Me.2017.1080p.BluRay.REMUX.AVC.DTS-HD.MA.5.1-FGT
Language                                 : English
Default                                  : No
Forced                                   : No

Audio #1
ID                                       : 2
Format                                   : DTS
Format/Info                              : Digital Theater Systems
Format profile                           : MA / Core
Codec ID                                 : A_DTS
Duration                                 : 1 h 59 min
Bit rate mode                            : Variable / Constant
Bit rate                                 : 3 072 kb/s / 1 509 kb/s
Channel(s)                               : 6 channels
Channel positions                        : Front: L C R, Side: L R, LFE
Sampling rate                            : 48.0 kHz
Frame rate                               : 93.750 FPS (512 SPF)
Bit depth                                : 24 bits
Compression mode                         : Lossless / Lossy
Stream size                              : 2.58 GiB (8%)
Title                                    : Same.Kind.of.Different.as.Me.2017.1080p.BluRay.REMUX.AVC.DTS-HD.MA.5.1-FGT
Language                                 : English
Default                                  : Yes
Forced                                   : No

Audio #2
ID                                       : 3
Format                                   : DTS
Format/Info                              : Digital Theater Systems
Codec ID                                 : A_DTS
Duration                                 : 1 h 59 min
Bit rate mode                            : Constant
Bit rate                                 : 1 509 kb/s
Channel(s)                               : 6 channels
Channel positions                        : Front: L C R, Side: L R, LFE
Sampling rate                            : 48.0 kHz
Frame rate                               : 93.750 FPS (512 SPF)
Bit depth                                : 24 bits
Compression mode                         : Lossy
Stream size                              : 1.26 GiB (4%)
Title                                    : Same.Kind.of.Different.as.Me.2017.1080p.BluRay.REMUX.AVC.DTS-HD.MA.5.1-FGT
Language                                 : English
Default                                  : No
Forced                                   : No

Audio #3
ID                                       : 4
Format                                   : AC-3
Format/Info                              : Audio Coding 3
Codec ID                                 : A_AC3
Duration                                 : 1 h 59 min
Bit rate mode                            : Constant
Bit rate                                 : 640 kb/s
Channel(s)                               : 6 channels
Channel positions                        : Front: L C R, Side: L R, LFE
Sampling rate                            : 48.0 kHz
Frame rate                               : 31.250 FPS (1536 SPF)
Bit depth                                : 16 bits
Compression mode                         : Lossy
Stream size                              : 546 MiB (2%)
Title                                    : Same.Kind.of.Different.as.Me.2017.1080p.BluRay.REMUX.AVC.DTS-HD.MA.5.1-FGT
Language                                 : French
Service kind                             : Complete Main
Default                                  : No
Forced                                   : No

Audio #4
ID                                       : 5
Format                                   : AC-3
Format/Info                              : Audio Coding 3
Codec ID                                 : A_AC3
Duration                                 : 1 h 59 min
Bit rate mode                            : Constant
Bit rate                                 : 640 kb/s
Channel(s)                               : 6 channels
Channel positions                        : Front: L C R, Side: L R, LFE
Sampling rate                            : 48.0 kHz
Frame rate                               : 31.250 FPS (1536 SPF)
Bit depth                                : 16 bits
Compression mode                         : Lossy
Stream size                              : 546 MiB (2%)
Title                                    : Same.Kind.of.Different.as.Me.2017.1080p.BluRay.REMUX.AVC.DTS-HD.MA.5.1-FGT
Language                                 : Spanish
Service kind                             : Complete Main
Default                                  : No
Forced                                   : No

Audio #5
ID                                       : 6
Format                                   : AC-3
Format/Info                              : Audio Coding 3
Codec ID                                 : A_AC3
Duration                                 : 1 h 59 min
Bit rate mode                            : Constant
Bit rate                                 : 640 kb/s
Channel(s)                               : 6 channels
Channel positions                        : Front: L C R, Side: L R, LFE
Sampling rate                            : 48.0 kHz
Frame rate                               : 31.250 FPS (1536 SPF)
Bit depth                                : 16 bits
Compression mode                         : Lossy
Stream size                              : 546 MiB (2%)
Title                                    : Same.Kind.of.Different.as.Me.2017.1080p.BluRay.REMUX.AVC.DTS-HD.MA.5.1-FGT
Language                                 : German
Service kind                             : Complete Main
Default                                  : No
Forced                                   : No

Audio #6
ID                                       : 7
Format                                   : AC-3
Format/Info                              : Audio Coding 3
Codec ID                                 : A_AC3
Duration                                 : 1 h 59 min
Bit rate mode                            : Constant
Bit rate                                 : 640 kb/s
Channel(s)                               : 6 channels
Channel positions                        : Front: L C R, Side: L R, LFE
Sampling rate                            : 48.0 kHz
Frame rate                               : 31.250 FPS (1536 SPF)
Bit depth                                : 16 bits
Compression mode                         : Lossy
Stream size                              : 546 MiB (2%)
Title                                    : Same.Kind.of.Different.as.Me.2017.1080p.BluRay.REMUX.AVC.DTS-HD.MA.5.1-FGT
Language                                 : English
Service kind                             : Complete Main
Default                                  : No
Forced                                   : No

Audio #7
ID                                       : 8
Format                                   : AC-3
Format/Info                              : Audio Coding 3
Codec ID                                 : A_AC3
Duration                                 : 1 h 59 min
Bit rate mode                            : Constant
Bit rate                                 : 224 kb/s
Channel(s)                               : 2 channels
Channel positions                        : Front: L R
Sampling rate                            : 48.0 kHz
Frame rate                               : 31.250 FPS (1536 SPF)
Bit depth                                : 16 bits
Compression mode                         : Lossy
Stream size                              : 191 MiB (1%)
Title                                    : Same.Kind.of.Different.as.Me.2017.1080p.BluRay.REMUX.AVC.DTS-HD.MA.5.1-FGT
Language                                 : English
Service kind                             : Complete Main
Default                                  : No
Forced                                   : No

Text #1
ID                                       : 9
Format                                   : PGS
Muxing mode                              : zlib
Codec ID                                 : S_HDMV/PGS
Codec ID/Info                            : Picture based subtitle format used on BDs/HD-DVDs
Duration                                 : 1 h 56 min
Bit rate                                 : 33.0 kb/s
Count of elements                        : 2501
Stream size                              : 27.5 MiB (0%)
Title                                    : English-PGS
Language                                 : English
Default                                  : Yes
Forced                                   : No

Text #2
ID                                       : 10
Format                                   : PGS
Muxing mode                              : zlib
Codec ID                                 : S_HDMV/PGS
Codec ID/Info                            : Picture based subtitle format used on BDs/HD-DVDs
Duration                                 : 1 h 58 min
Bit rate                                 : 37.2 kb/s
Count of elements                        : 2951
Stream size                              : 31.5 MiB (0%)
Title                                    : English-SDH-PGS
Language                                 : English
Default                                  : No
Forced                                   : No

Text #3
ID                                       : 11
Format                                   : PGS
Muxing mode                              : zlib
Codec ID                                 : S_HDMV/PGS
Codec ID/Info                            : Picture based subtitle format used on BDs/HD-DVDs
Duration                                 : 1 h 56 min
Bit rate                                 : 29.5 kb/s
Count of elements                        : 2489
Stream size                              : 24.7 MiB (0%)
Title                                    : French-PGS
Language                                 : French
Default                                  : No
Forced                                   : No

Text #4
ID                                       : 12
Format                                   : PGS
Muxing mode                              : zlib
Codec ID                                 : S_HDMV/PGS
Codec ID/Info                            : Picture based subtitle format used on BDs/HD-DVDs
Duration                                 : 1 h 56 min
Bit rate                                 : 1 083 b/s
Count of elements                        : 64
Stream size                              : 928 KiB (0%)
Title                                    : French-FORCED-PGS
Language                                 : French
Default                                  : No
Forced                                   : No

Text #5
ID                                       : 13
Format                                   : PGS
Muxing mode                              : zlib
Codec ID                                 : S_HDMV/PGS
Codec ID/Info                            : Picture based subtitle format used on BDs/HD-DVDs
Duration                                 : 1 h 56 min
Bit rate                                 : 32.8 kb/s
Count of elements                        : 2508
Stream size                              : 27.4 MiB (0%)
Title                                    : Spanish-PGS
Language                                 : Spanish
Default                                  : No
Forced                                   : No

Text #6
ID                                       : 14
Format                                   : PGS
Muxing mode                              : zlib
Codec ID                                 : S_HDMV/PGS
Codec ID/Info                            : Picture based subtitle format used on BDs/HD-DVDs
Duration                                 : 1 h 56 min
Bit rate                                 : 784 b/s
Count of elements                        : 44
Stream size                              : 672 KiB (0%)
Title                                    : Spanish-FORCED-PGS
Language                                 : Spanish
Default                                  : No
Forced                                   : No

Text #7
ID                                       : 15
Format                                   : PGS
Muxing mode                              : zlib
Codec ID                                 : S_HDMV/PGS
Codec ID/Info                            : Picture based subtitle format used on BDs/HD-DVDs
Duration                                 : 1 h 58 min
Bit rate                                 : 33.5 kb/s
Count of elements                        : 2541
Stream size                              : 28.4 MiB (0%)
Title                                    : German-PGS
Language                                 : German
Default                                  : No
Forced                                   : No

Text #8
ID                                       : 16
Format                                   : PGS
Muxing mode                              : zlib
Codec ID                                 : S_HDMV/PGS
Codec ID/Info                            : Picture based subtitle format used on BDs/HD-DVDs
Duration                                 : 1 h 56 min
Bit rate                                 : 1 178 b/s
Count of elements                        : 68
Stream size                              : 1 009 KiB (0%)
Title                                    : German-FORCED-PGS
Language                                 : German
Default                                  : No
Forced                                   : No

Text #9
ID                                       : 17
Format                                   : PGS
Muxing mode                              : zlib
Codec ID                                 : S_HDMV/PGS
Codec ID/Info                            : Picture based subtitle format used on BDs/HD-DVDs
Duration                                 : 1 h 58 min
Bit rate                                 : 78.4 kb/s
Count of elements                        : 5221
Stream size                              : 66.5 MiB (0%)
Title                                    : English-COMMENTARY-PGS
Language                                 : English
Default                                  : No
Forced                                   : No

Text #10
ID                                       : 18
Format                                   : PGS
Muxing mode                              : zlib
Codec ID                                 : S_HDMV/PGS
Codec ID/Info                            : Picture based subtitle format used on BDs/HD-DVDs
Duration                                 : 1 h 58 min
Bit rate                                 : 65.0 kb/s
Count of elements                        : 5047
Stream size                              : 55.2 MiB (0%)
Title                                    : French-COMMENTARY-PGS
Language                                 : French
Default                                  : No
Forced                                   : No

Text #11
ID                                       : 19
Format                                   : PGS
Muxing mode                              : zlib
Codec ID                                 : S_HDMV/PGS
Codec ID/Info                            : Picture based subtitle format used on BDs/HD-DVDs
Duration                                 : 1 h 58 min
Bit rate                                 : 71.1 kb/s
Count of elements                        : 5111
Stream size                              : 60.3 MiB (0%)
Title                                    : Spanish-COMMENTARY-PGS
Language                                 : Spanish
Default                                  : No
Forced                                   : No

Text #12
ID                                       : 20
Format                                   : PGS
Muxing mode                              : zlib
Codec ID                                 : S_HDMV/PGS
Codec ID/Info                            : Picture based subtitle format used on BDs/HD-DVDs
Duration                                 : 1 h 58 min
Bit rate                                 : 71.6 kb/s
Count of elements                        : 4911
Stream size                              : 60.7 MiB (0%)
Title                                    : German-COMMENTARY-PGS
Language                                 : German
Default                                  : No
Forced                                   : No

Menu
00:00:00.000                             : en:Chapter 01
00:07:33.327                             : en:Chapter 02
00:14:07.429                             : en:Chapter 03
00:20:27.517                             : en:Chapter 04
00:26:51.610                             : en:Chapter 05
00:32:24.108                             : en:Chapter 06
00:37:42.009                             : en:Chapter 07
00:44:49.978                             : en:Chapter 08
00:51:43.767                             : en:Chapter 09
00:57:21.062                             : en:Chapter 10
01:03:50.785                             : en:Chapter 11
01:12:40.689                             : en:Chapter 12
01:20:03.340                             : en:Chapter 13
01:27:32.747                             : en:Chapter 14
01:32:40.888                             : en:Chapter 15
01:40:31.817                             : en:Chapter 16
01:47:21.226                             : en:Chapter 17
01:55:30.173                             : en:Chapter 18



9103f7eb5e9b7617c3c40b70a50b5e86.jpg
2ec79ee5bd4425370c5bfed59a19aeac.jpg

7d79ab5bbc67dfb82dab1541309969df.jpg
04fd4399c71a24f9f60bca281fa62d62.jpg

96d4cb68758c45a88957d656b4154484.jpg
eeb190ffa82cc6c73f1059be58bc0d44.jpg



f23937f9fc2c54e19c1deb1f70d42937.torrent (83.97 KB, 下载次数: 1)
回复

使用道具 举报

您需要登录后才可以回帖 登录 | 立即注册

本版积分规则

Archiver|手机版|小黑屋|时代影视论坛 ( 宁ICP备16002180号-4 )

GMT+8, 2018-8-16 11:55 , Processed in 0.133238 second(s), 30 queries , Gzip On.

Powered by 时代影视 X3.2

© 2001-2013 Comsenz Inc.

快速回复 返回顶部 返回列表