时代影视论坛(NowYS)

 找回密码
 立即注册
搜索
查看: 2220|回复: 1

[BT下载]太空之旅 2015.DOCU.2160p.BluRay.x265.10bit.SDR.DTS-SWTYBLZ 12GB

[复制链接]

该用户从未签到

发表于 2018-2-14 19:31:00 | 显示全部楼层 |阅读模式
台湾UU

马上注册,结交更多好友,享用更多功能,让你轻松玩转社区。

您需要 登录 才可以下载或查看,没有帐号?立即注册

x
[2015] [欧美] [纪录] [BD-2160P][BT下载]太空之旅 2015.DOCU.2160p.BluRay.x265.10bit.SDR.DTS-SWTYBLZ 12GB



-->

Journey.to.Space.2015.DOCU.2160p.BluRay.x265.10bit.SDR.DTS-HD.MA.TrueHD.7.1.Atmos-SWTYBLZ

Journey.to.Space.2015.DOCU.2160p.BluRay.x265.10bit.SDR.DTS-HD.MA.TrueHD.7.1.Atmos-SWTYBLZ

◎译  名 太空之旅/宇宙之旅
◎片  名 Journey to Space
◎年  代 2015
◎产  地 美国
◎类  别 科幻/冒险/纪录片
◎语  言 英语
◎上映日期 2015-02-13(美国)/2015-04-08(北京电影节)
◎IMDb评分  6.5/10 from 483 users
◎IMDb链接  http://www.imdb.com/title/tt4292554/
◎豆瓣评分 8.0/10 from 82 users
◎豆瓣链接 https://movie.douban.com/subject/26420838/
◎BT之家整理 http://www.btbtt.co
◎片  长 45分钟
◎导  演 Mark Krenzien
◎主  演 帕特里克·斯图尔特 Patrick Stewart
      Serena Aunon
      Lindsay Aitchison
      Chris Ferguson


◎简  介


  Journey To Space unveils a new era of unprecedented deep space exploration in dramatic giant screen film format. It tells the true exciting story of what the next chapter of space exploration holds for both the near- and long-term. “Journey To Space,” presented by The Boeing Company and Toyota, showcases the plans by NASA and the larger space community to land astronauts on Mars.


Video
ID                                       : 1
Format                                   : HEVC
Format/Info                              : High Efficiency Video Coding
Format profile                           : Main 10@L5.1@High
Codec ID                                 : V_MPEGH/ISO/HEVC
Duration                                 : 41 min 34 s
Bit rate                                 : 33.5 Mb/s
Width                                    : 3 840 pixels
Height                                   : 2 160 pixels
Display aspect ratio                     : 16:9
Frame rate mode                          : Constant
Frame rate                               : 23.976 (24000/1001) FPS
Color space                              : YUV
Chroma subsampling                       : 4:2:0
Bit depth                                : 10 bits
Bits/(Pixel*Frame)                       : 0.169
Stream size                              : 9.74 GiB (80%)
Title                                    : Journey.to.Space.2015.DOCU.2160p.BluRay.x265.10bit.SDR.DTS-HD.MA.TrueHD.7.1.Atmos-SWTYBLZ
Writing library                          : x265 2.5b4a5bcfe29c7:[Windows][GCC 4.9.3][64 bit] 10bit
Encoding settings                        : cpuid=1173503 / frame-threads=16 / numa-pools=24,24,24,24 / wpp / no-pmode / no-pme / no-psnr / no-ssim / log-level=2 / input-csp=1 / input-res=3840x2160 / interlace=0 / total-frames=0 / level-idc=51 / high-tier=1 / uhd-bd=0 / ref=3 / no-allow-non-conformance / repeat-headers / annexb / aud / hrd / info / hash=0 / no-temporal-layers / no-open-gop / min-keyint=1 / keyint=24 / bframes=4 / b-adapt=2 / b-pyramid / bframe-bias=0 / rc-lookahead=25 / lookahead-slices=4 / scenecut=40 / no-intra-refresh / ctu=64 / min-cu-size=8 / no-rect / no-amp / max-tu-size=32 / tu-inter-depth=1 / tu-intra-depth=1 / limit-tu=0 / rdoq-level=0 / dynamic-rd=0.00 / no-ssim-rd / signhide / no-tskip / nr-intra=0 / nr-inter=0 / no-constrained-intra / strong-intra-smoothing / max-merge=2 / limit-refs=3 / no-limit-modes / me=1 / subme=2 / merange=57 / temporal-mvp / weightp / no-weightb / no-analyze-src-pics / deblock=0:0 / no-sao / no-sao-non-deblock / rd=3 / no-early-skip / rskip / no-fast-intra / no-tskip-fast / no-cu-lossless / no-b-intra / rdpenalty=0 / psy-rd=2.00 / psy-rdoq=0.00 / no-rd-refine / analysis-reuse-mode=0 / no-lossless / cbqpoffs=0 / crqpoffs=0 / rc=crf / crf=16.0 / qcomp=0.60 / qpstep=4 / stats-write=0 / stats-read=0 / vbv-maxrate=160000 / vbv-bufsize=160000 / vbv-init=0.9 / crf-max=0.0 / crf-min=0.0 / ipratio=1.40 / pbratio=1.30 / aq-mode=1 / aq-strength=1.00 / cutree / zone-count=0 / no-strict-cbr / qg-size=32 / no-rc-grain / qpmax=69 / qpmin=0 / no-const-vbv / sar=1 / overscan=0 / videoformat=5 / range=0 / colorprim=2 / transfer=2 / colormatrix=2 / chromaloc=0 / display-window=0 / max-cll=0,0 / min-luma=0 / max-luma=1023 / log2-max-poc-lsb=8 / vui-timing-info / vui-hrd-info / slices=1 / opt-qp-pps / opt-ref-list-length-pps / no-multi-pass-opt-rps / scenecut-bias=0.05 / no-opt-cu-delta-qp / no-aq-motion / no-hdr / no-hdr-opt / no-dhdr10-opt / analysis-reuse-level=5 / scale-factor=0 / refine-intra=0 / refine-inter=0 / refine-mv=0 / no-limit-sao / ctu-info=0
Default                                  : Yes
Forced                                   : No

Audio #1
ID                                       : 2
Format                                   : TrueHD
Format profile                           : TrueHD+Atmos / TrueHD
Codec ID                                 : A_TRUEHD
Duration                                 : 41 min 34 s
Bit rate mode                            : Variable
Bit rate                                 : 4 208 kb/s
Maximum bit rate                         : 6 144 kb/s
Channel(s)                               : Object Based / 8 channels
Channel positions                        : Object Based / Front: L C R, Side: L R, Back: L R, LFE
Sampling rate                            :  / 48.0 kHz
Frame rate                               : 1 200.000 FPS (40 SPF)
Compression mode                         : Lossless
Stream size                              : 1.22 GiB (10%)
Title                                    : Journey.to.Space.2015.DOCU.2160p.BluRay.x265.10bit.SDR.DTS-HD.MA.TrueHD.7.1.Atmos-SWTYBLZ
Language                                 : English
Default                                  : Yes
Forced                                   : No

Audio #2
ID                                       : 3
Format                                   : DTS
Format/Info                              : Digital Theater Systems
Format profile                           : MA / Core
Codec ID                                 : A_DTS
Duration                                 : 41 min 34 s
Bit rate mode                            : Variable / Constant
Bit rate                                 : 3 552 kb/s / 1 509 kb/s
Channel(s)                               : 8 channels / 6 channels
Channel positions                        : Front: L C R, Side: L R, Back: L R, LFE / Front: L C R, Side: L R, LFE
Sampling rate                            : 48.0 kHz
Frame rate                               : 93.750 FPS (512 SPF)
Bit depth                                : 24 bits
Compression mode                         : Lossless / Lossy
Stream size                              : 1.03 GiB (8%)
Title                                    : Journey.to.Space.2015.DOCU.2160p.BluRay.x265.10bit.SDR.DTS-HD.MA.TrueHD.7.1.Atmos-SWTYBLZ
Language                                 : English
Default                                  : No
Forced                                   : No

Audio #3
ID                                       : 4
Format                                   : AC-3
Format/Info                              : Audio Coding 3
Codec ID                                 : A_AC3
Duration                                 : 41 min 34 s
Bit rate mode                            : Constant
Bit rate                                 : 640 kb/s
Channel(s)                               : 6 channels
Channel positions                        : Front: L C R, Side: L R, LFE
Sampling rate                            : 48.0 kHz
Frame rate                               : 31.250 FPS (1536 SPF)
Bit depth                                : 16 bits
Compression mode                         : Lossy
Stream size                              : 190 MiB (2%)
Title                                    : Journey.to.Space.2015.DOCU.2160p.BluRay.x265.10bit.SDR.DTS-HD.MA.TrueHD.7.1.Atmos-SWTYBLZ
Language                                 : English
Service kind                             : Complete Main
Default                                  : No
Forced                                   : No

Text
ID                                       : 5
Format                                   : UTF-8
Codec ID                                 : S_TEXT/UTF8
Codec ID/Info                            : UTF-8 Plain Text
Duration                                 : 38 min 46 s
Bit rate                                 : 71 b/s
Count of elements                        : 483
Stream size                              : 20.4 KiB (0%)
Title                                    : English-SRT
Language                                 : English
Default                                  : Yes
Forced                                   : No

Menu
00:00:00.000                             : en:Chapter 1
00:03:06.769                             : en:Chapter 2
00:05:48.973                             : en:Chapter 3
00:08:23.878                             : en:Chapter 4
00:10:55.738                             : en:Chapter 5
00:12:19.321                             : en:Chapter 6
00:15:04.153                             : en:Chapter 7
00:17:16.493                             : en:Chapter 8
00:20:31.230                             : en:Chapter 9
00:23:14.017                             : en:Chapter 10
00:23:51.555                             : en:Chapter 11
00:26:17.284                             : en:Chapter 12
00:28:08.103                             : en:Chapter 13
00:30:48.054                             : en:Chapter 14
00:33:43.271                             : en:Chapter 15
00:38:43.154                             : en:Chapter 16




7b06f25ba807d93e6585536946b6d0f1.jpg
c54691224aa4b706cecd11171f0db760.jpg

7d27ae8feab710fbbd17a20c47f00d1c.jpg
16ff9abc576cc474a5015b8312a8ebb6.jpg

aeb827ba8bace15c13440c37735d7736.jpg
926f082110717ba443b63fc8509e9a40.jpg



e6ccde423065e330415d8f6000bd66de.torrent (62.55 KB, 下载次数: 3)
回复

使用道具 举报

  • TA的每日心情
    郁闷
    3 天前
  • 签到天数: 366 天

    [LV.9]以坛为家II

    发表于 2018-2-20 19:23:37 | 显示全部楼层
    感谢楼主分享精彩电影!
    回复 支持 反对

    使用道具 举报

    您需要登录后才可以回帖 登录 | 立即注册

    本版积分规则

    Archiver|手机版|小黑屋|时代影视论坛(NowYS小组) ( 宁ICP备16002180号-4 )

    GMT+8, 2018-6-22 03:50 , Processed in 0.163542 second(s), 29 queries , Gzip On.

    Powered by 时代影视 X3.2

    © 2001-2013 Comsenz Inc.

    快速回复 返回顶部 返回列表