时代影视论坛(NowYS)

 找回密码
 立即注册
搜索
查看: 2107|回复: 1

[BT下载]你被川普了 Youve.Been.Trumped.2011.1080p.AMZN.WEBRip.DD2.0.x264-QOQ 7.9G ...

[复制链接]

该用户从未签到

发表于 2018-2-22 21:41:50 | 显示全部楼层 |阅读模式
台湾UU

马上注册,结交更多好友,享用更多功能,让你轻松玩转社区。

您需要 登录 才可以下载或查看,没有帐号?立即注册

x
[2011] [欧美] [纪录] [BD-1080P][BT下载]你被川普了 Youve.Been.Trumped.2011.1080p.AMZN.WEBRip.DD2.0.x264-QOQ 7.9GB



-->

Youve.Been.Trumped.2011.1080p.AMZN.WEBRip.DD2.0.x264-QOQ

Youve.Been.Trumped.2011.1080p.AMZN.WEBRip.DD2.0.x264-QOQ
+
◎译  名 你被川普了/你被将军了/你被“特朗普”了
◎片  名 You've Been Trumped
◎年  代 2011
◎产  地 英国
◎类  别 纪录片
◎语  言 英语
◎上映日期 2012-07-06
◎IMDb评分  7.5/10 from 1,991 users
◎IMDb链接  http://www.imdb.com/title/tt1943873/
◎BT之家整理 http://www.btbtt.co
◎片  长 95分钟
◎导  演 Anthony Baxter
◎主  演 唐纳德·特朗普 Donald Trump
      Anthony Baxter
      Michael Forbes
      Sheila Forbes
      Martin Ford
      David Kennedy
      David McCue
      David Milne
      Susan Munro
      Richard Phinney
      Charles Skene
      Andy Wightman


◎简  介


  ★「令人驚訝的電影!」─英國衛報
  ★ 漢普敦影展社會正義獎、舊金山綠色影展大獎、聖多納影展最佳環保影片獎、雪菲爾德紀錄片影展綠色獎
  這是英國版的美麗灣事件。美國地產大亨川普買下蘇格蘭最北部沿海地段,為了興建號稱世上最棒的高爾夫球場,這塊原被喻為「歐洲的亞馬遜雨林」,在環境生態上具有舉足輕重的地位。隨著川普的到來,怪手駛進居民家園、廢土隨意丟棄,居民不願意離開家園,川普卻說提供他們「美好生活」與「就業機會」…。奧斯卡紀錄片大導演麥可摩爾直言「我為這部片大受震撼」多倫多星報影評更直接評點「貪婪、傲慢、愚蠢的全紀錄」。本片讓人重新省思城市發展與經濟議題,自然、土地與人民的關係,單純紀錄,卻讓我們更加看見事實真相。


Video
ID                                       : 1
Format                                   : AVC
Format/Info                              : Advanced Video Codec
Format profile                           : High@L4
Format settings                          : CABAC / 4 Ref Frames
Format settings, CABAC                   : Yes
Format settings, ReFrames                : 4 frames
Codec ID                                 : V_MPEG4/ISO/AVC
Duration                                 : 1 h 36 min
Bit rate mode                            : Variable
Bit rate                                 : 11.5 Mb/s
Maximum bit rate                         : 15.0 Mb/s
Width                                    : 1 920 pixels
Height                                   : 1 080 pixels
Display aspect ratio                     : 16:9
Frame rate mode                          : Constant
Frame rate                               : 25.000 FPS
Color space                              : YUV
Chroma subsampling                       : 4:2:0
Bit depth                                : 8 bits
Scan type                                : Progressive
Bits/(Pixel*Frame)                       : 0.222
Stream size                              : 7.77 GiB (98%)
Default                                  : Yes
Forced                                   : No
Color range                              : Limited
Color primaries                          : BT.709
Transfer characteristics                 : BT.709
Matrix coefficients                      : BT.709

Audio
ID                                       : 2
Format                                   : E-AC-3
Format/Info                              : Enhanced Audio Coding 3
Codec ID                                 : A_EAC3
Duration                                 : 1 h 36 min
Bit rate mode                            : Constant
Bit rate                                 : 224 kb/s
Channel(s)                               : 2 channels
Channel positions                        : Front: L R
Sampling rate                            : 48.0 kHz
Frame rate                               : 187.500 FPS (256 SPF)
Compression mode                         : Lossy
Stream size                              : 155 MiB (2%)
Language                                 : English
Service kind                             : Complete Main
Default                                  : Yes
Forced                                   : No

Text #1
ID                                       : 3
Format                                   : UTF-8
Codec ID                                 : S_TEXT/UTF8
Codec ID/Info                            : UTF-8 Plain Text
Duration                                 : 1 h 33 min
Bit rate                                 : 90 b/s
Count of elements                        : 1276
Stream size                              : 62.0 KiB (0%)
Language                                 : English
Default                                  : No
Forced                                   : No

Text #2
ID                                       : 4
Format                                   : UTF-8
Codec ID                                 : S_TEXT/UTF8
Codec ID/Info                            : UTF-8 Plain Text
Duration                                 : 1 h 33 min
Bit rate                                 : 91 b/s
Count of elements                        : 1299
Stream size                              : 62.6 KiB (0%)
Title                                    : SDH
Language                                 : English
Default                                  : No
Forced                                   : No


f648595153ddf9b539a92e4411844626.jpg
43b4fbdf7c50ed4a82361bffcb5c2667.jpg

cbf6fa4feb28a724a873cea51b42936c.jpg
f5343e865dc4b0c5e3dd0287e607c7a9.jpg

27909cd61a8fe1fde5b7dbcc7ef152ad.jpg
6006f82f7483fa324eb8efca91252731.jpg



42cd851875f3e8c4eaaae7bdced16e94.torrent (79.71 KB, 下载次数: 5)
回复

使用道具 举报

  • TA的每日心情
    无聊
    昨天 23:05
  • 签到天数: 62 天

    [LV.6]常住居民II

    发表于 2018-2-23 17:19:51 | 显示全部楼层
    没听说过的新片  感谢分享
    回复 支持 反对

    使用道具 举报

    您需要登录后才可以回帖 登录 | 立即注册

    本版积分规则

    Archiver|手机版|小黑屋|时代影视论坛(NowYS小组) ( 宁ICP备16002180号-4 )

    GMT+8, 2018-4-26 17:12 , Processed in 0.176761 second(s), 29 queries , Gzip On.

    Powered by 时代影视 X3.2

    © 2001-2013 Comsenz Inc.

    快速回复 返回顶部 返回列表