时代影视论坛(NowYS)

 找回密码
 立即注册
搜索
查看: 2132|回复: 3

[BT下载]雷神3 Thor.Ragnarok.2017.2160p.BluRay.x264.8bit.SDR.DTS-SWTYBLZ 39GB

[复制链接]

该用户从未签到

发表于 2018-2-24 15:50:09 | 显示全部楼层 |阅读模式
台湾UU

马上注册,结交更多好友,享用更多功能,让你轻松玩转社区。

您需要 登录 才可以下载或查看,没有帐号?立即注册

x
[2017] [欧美] [奇幻] [BD-2160P][BT下载]雷神3 Thor.Ragnarok.2017.2160p.BluRay.x264.8bit.SDR.DTS-SWTYBLZ 39GB



-->自带中字

Thor.Ragnarok.2017.2160p.BluRay.x264.8bit.SDR.DTS-HD.MA.TrueHD.7.1.Atmos-SWTYBLZ

Thor.Ragnarok.2017.2160p.BluRay.x264.8bit.SDR.DTS-HD.MA.TrueHD.7.1.Atmos-SWTYBLZ

◎译  名 雷神3:诸神黄昏/雷神索尔3:诸神黄昏(台)/雷神奇侠3:诸神黄昏(港)/雷神3:诸神的黄昏
◎片  名 Thor: Ragnarok
◎年  代 2017
◎产  地 美国
◎类  别 动作/奇幻/冒险
◎语  言 英语
◎上映日期 2017-10-24(英国)/2017-11-03(美国)/2017-11-03(中国大陆)
◎IMDb评分  8.0/10 from 235,579 users
◎IMDb链接  http://www.imdb.com/title/tt3501632/
◎豆瓣评分 7.5/10 from 146,161 users
◎豆瓣链接 https://movie.douban.com/subject/25821634/
◎片  长 130分钟
◎导  演 塔伊加·维迪提 Taika Waititi
◎主  演 克里斯·海姆斯沃斯 Chris Hemsworth
      汤姆·希德勒斯顿 Tom Hiddleston
      凯特·布兰切特 Cate Blanchett
      伊德里斯·艾尔巴 Idris Elba
      杰夫·高布伦 Jeff Goldblum
      泰莎·汤普森 Tessa Thompson
      卡尔·厄本 Karl Urban
      马克·鲁弗洛 Mark Ruffalo
      安东尼·霍普金斯 Anthony Hopkins
      本尼迪克特·康伯巴奇 Benedict Cumberbatch
      塔伊加·维迪提 Taika Waititi
      瑞切尔·豪斯 Rachel House
      克兰西·布朗 Clancy Brown
      浅野忠信 Tadanobu Asano
      雷·史蒂文森 Ray Stevenson
      扎克瑞·莱维 Zachary Levi
      卢克·海姆斯沃斯 Luke Hemsworth
      马特·达蒙 Matt Damon
      山姆·尼尔 Sam Neill
      夏洛特·尼克道 Charlotte Nicdao
      斯坦·李 Stan Lee


◎简  介


  在“索科维亚战役”两年后,索尔(克里斯·海姆斯沃斯 饰)得知诸神黄昏的预言并希望全力阻止火焰巨人苏尔特尔毁灭阿斯加德。索尔与洛基(汤姆·希德勒斯顿 饰)在奇异博士(本尼迪克特·康伯巴奇 饰)的指引下找到了奥丁(安东尼·霍普金斯 饰)。奥丁向他们兄弟二人道出他们还有一位姐姐——“死亡女神”海拉(凯特·布兰切特 饰)。在一场战斗里雷神之锤被海拉所毁,索尔跌下彩虹桥而来到了萨卡星,成为阶下囚。失去了锤子的索尔被逼展开角斗士对决,而对手居然是自己的老战友绿巨人(马克·鲁弗洛 饰)。索尔必须与绿巨人、洛基等人并肩战斗,才能阻止海拉和即将到来的诸神黄昏。


◎获奖情况


  第16届美国视觉效果协会奖  (2018)
  最佳电影虚拟摄影(提名)
  最佳电影视觉效果合成(提名)


  第23届美国评论家选择电影奖  (2018)
  喜剧片最佳男主角(提名) 克里斯·海姆斯沃斯
  最佳动作片(提名)
  最佳视觉效果(提名)


  第4届豆瓣电影年度榜单  (2017)
  评分最高的科幻/动作片(提名)
  11月最受关注电影(提名)


  第3届豆瓣电影年度榜单  (2016)
  最值得期待的外语电影(提名)



Video
ID                                       : 1
Format                                   : AVC
Format/Info                              : Advanced Video Codec
Format profile                           : High@L5.1
Format settings                          : CABAC / 5 Ref Frames
Format settings, CABAC                   : Yes
Format settings, RefFrames               : 5 frames
Codec ID                                 : V_MPEG4/ISO/AVC
Duration                                 : 2 h 10 min
Bit rate                                 : 34.4 Mb/s
Width                                    : 3 840 pixels
Height                                   : 1 608 pixels
Display aspect ratio                     : 2.40:1
Frame rate mode                          : Constant
Frame rate                               : 23.976 (24000/1001) FPS
Color space                              : YUV
Chroma subsampling                       : 4:2:0
Bit depth                                : 8 bits
Scan type                                : Progressive
Bits/(Pixel*Frame)                       : 0.232
Stream size                              : 31.4 GiB (80%)
Title                                    : Thor.Ragnarok.2017.2160p.BluRay.x264.8bit.SDR.DTS-HD.MA.TrueHD.7.1.Atmos-SWTYBLZ
Writing library                          : x264 core 148 r2748 97eaef2
Encoding settings                        : cabac=1 / ref=5 / deblock=1:-1:-1 / analyse=0x3:0x113 / me=umh / subme=10 / psy=1 / psy_rd=1.00:0.15 / mixed_ref=1 / me_range=48 / chroma_me=1 / trellis=2 / 8x8dct=1 / cqm=0 / deadzone=21,11 / fast_pskip=1 / chroma_qp_offset=-3 / threads=50 / lookahead_threads=4 / sliced_threads=0 / nr=0 / decimate=0 / interlaced=0 / bluray_compat=0 / constrained_intra=0 / bframes=3 / b_pyramid=2 / b_adapt=2 / b_bias=0 / direct=3 / weightb=1 / open_gop=0 / weightp=2 / keyint=250 / keyint_min=23 / scenecut=40 / intra_refresh=0 / rc_lookahead=50 / rc=crf / mbtree=1 / crf=18.0 / qcomp=0.60 / qpmin=0 / qpmax=69 / qpstep=4 / ip_ratio=1.40 / aq=1:1.00
Default                                  : Yes
Forced                                   : No

Audio #1
ID                                       : 2
Format                                   : TrueHD
Format profile                           : TrueHD+Atmos / TrueHD
Codec ID                                 : A_TRUEHD
Duration                                 : 2 h 10 min
Bit rate mode                            : Variable
Bit rate                                 : 4 051 kb/s
Maximum bit rate                         : 5 889 kb/s
Channel(s)                               : Object Based / 8 channels
Channel positions                        : Object Based / Front: L C R, Side: L R, Back: L R, LFE
Sampling rate                            :  / 48.0 kHz
Frame rate                               : 1 200.000 FPS (40 SPF)
Compression mode                         : Lossless
Delay relative to video                  : 32 ms
Stream size                              : 3.69 GiB (9%)
Title                                    : Thor.Ragnarok.2017.2160p.BluRay.x264.8bit.SDR.DTS-HD.MA.TrueHD.7.1.Atmos-SWTYBLZ
Language                                 : English
Default                                  : Yes
Forced                                   : No

Audio #2
ID                                       : 3
Format                                   : DTS
Format/Info                              : Digital Theater Systems
Format profile                           : MA / Core
Codec ID                                 : A_DTS
Duration                                 : 2 h 10 min
Bit rate mode                            : Variable / Constant
Bit rate                                 : 3 549 kb/s / 1 509 kb/s
Channel(s)                               : 8 channels / 6 channels
Channel positions                        : Front: L C R, Side: L R, Back: L R, LFE / Front: L C R, Side: L R, LFE
Sampling rate                            : 48.0 kHz
Frame rate                               : 93.750 FPS (512 SPF)
Bit depth                                : 24 bits
Compression mode                         : Lossless / Lossy
Stream size                              : 3.24 GiB (8%)
Title                                    : Thor.Ragnarok.2017.2160p.BluRay.x264.8bit.SDR.DTS-HD.MA.TrueHD.7.1.Atmos-SWTYBLZ
Language                                 : English
Default                                  : No
Forced                                   : No

Audio #3
ID                                       : 4
Format                                   : AC-3
Format/Info                              : Audio Coding 3
Codec ID                                 : A_AC3
Duration                                 : 2 h 10 min
Bit rate mode                            : Constant
Bit rate                                 : 640 kb/s
Channel(s)                               : 6 channels
Channel positions                        : Front: L C R, Side: L R, LFE
Sampling rate                            : 48.0 kHz
Frame rate                               : 31.250 FPS (1536 SPF)
Bit depth                                : 16 bits
Compression mode                         : Lossy
Delay relative to video                  : 31 ms
Stream size                              : 597 MiB (1%)
Title                                    : Thor.Ragnarok.2017.2160p.BluRay.x264.8bit.SDR.DTS-HD.MA.TrueHD.7.1.Atmos-SWTYBLZ
Language                                 : English
Service kind                             : Complete Main
Default                                  : No
Forced                                   : No

Text #1
ID                                       : 5
Format                                   : UTF-8
Codec ID                                 : S_TEXT/UTF8
Codec ID/Info                            : UTF-8 Plain Text
Duration                                 : 2 h 9 min
Bit rate                                 : 49 b/s
Count of elements                        : 1635
Stream size                              : 46.8 KiB (0%)
Title                                    : English-SRT
Language                                 : English
Default                                  : Yes
Forced                                   : No

Text #2
ID                                       : 6
Format                                   : PGS
Muxing mode                              : zlib
Codec ID                                 : S_HDMV/PGS
Codec ID/Info                            : Picture based subtitle format used on BDs/HD-DVDs
Duration                                 : 2 h 10 min
Bit rate                                 : 37.9 kb/s
Count of elements                        : 4164
Stream size                              : 35.3 MiB (0%)
Title                                    : English-PGS
Language                                 : English
Default                                  : No
Forced                                   : No

Text #3
ID                                       : 7
Format                                   : PGS
Muxing mode                              : zlib
Codec ID                                 : S_HDMV/PGS
Codec ID/Info                            : Picture based subtitle format used on BDs/HD-DVDs
Duration                                 : 2 h 9 min
Bit rate                                 : 30.4 kb/s
Count of elements                        : 3184
Stream size                              : 28.2 MiB (0%)
Title                                    : French-PGS
Language                                 : French
Default                                  : No
Forced                                   : No

Text #4
ID                                       : 8
Format                                   : PGS
Muxing mode                              : zlib
Codec ID                                 : S_HDMV/PGS
Codec ID/Info                            : Picture based subtitle format used on BDs/HD-DVDs
Duration                                 : 2 h 9 min
Bit rate                                 : 31.3 kb/s
Count of elements                        : 3144
Stream size                              : 29.0 MiB (0%)
Title                                    : Spanish-PGS
Language                                 : Spanish
Default                                  : No
Forced                                   : No

Text #5
ID                                       : 9
Format                                   : PGS
Muxing mode                              : zlib
Codec ID                                 : S_HDMV/PGS
Codec ID/Info                            : Picture based subtitle format used on BDs/HD-DVDs
Duration                                 : 2 h 9 min
Bit rate                                 : 18.3 kb/s
Count of elements                        : 3138
Stream size                              : 17.0 MiB (0%)
Title                                    : Chinese-PGS
Language                                 : Chinese
Default                                  : No
Forced                                   : No

Text #6
ID                                       : 10
Format                                   : PGS
Muxing mode                              : zlib
Codec ID                                 : S_HDMV/PGS
Codec ID/Info                            : Picture based subtitle format used on BDs/HD-DVDs
Duration                                 : 2 h 9 min
Bit rate                                 : 26.3 kb/s
Count of elements                        : 3128
Stream size                              : 24.4 MiB (0%)
Title                                    : French-PGS
Language                                 : French
Default                                  : No
Forced                                   : No

Text #7
ID                                       : 11
Format                                   : PGS
Muxing mode                              : zlib
Codec ID                                 : S_HDMV/PGS
Codec ID/Info                            : Picture based subtitle format used on BDs/HD-DVDs
Duration                                 : 2 h 9 min
Bit rate                                 : 33.3 kb/s
Count of elements                        : 3134
Stream size                              : 30.8 MiB (0%)
Title                                    : German-PGS
Language                                 : German
Default                                  : No
Forced                                   : No

Text #8
ID                                       : 12
Format                                   : PGS
Muxing mode                              : zlib
Codec ID                                 : S_HDMV/PGS
Codec ID/Info                            : Picture based subtitle format used on BDs/HD-DVDs
Duration                                 : 2 h 9 min
Bit rate                                 : 22.1 kb/s
Count of elements                        : 2958
Stream size                              : 20.4 MiB (0%)
Title                                    : Japanese-PGS
Language                                 : Japanese
Default                                  : No
Forced                                   : No

Text #9
ID                                       : 13
Format                                   : PGS
Muxing mode                              : zlib
Codec ID                                 : S_HDMV/PGS
Codec ID/Info                            : Picture based subtitle format used on BDs/HD-DVDs
Duration                                 : 2 h 9 min
Bit rate                                 : 15.9 kb/s
Count of elements                        : 3112
Stream size                              : 14.7 MiB (0%)
Title                                    : Korean-PGS
Language                                 : Korean
Default                                  : No
Forced                                   : No

Text #10
ID                                       : 14
Format                                   : PGS
Muxing mode                              : zlib
Codec ID                                 : S_HDMV/PGS
Codec ID/Info                            : Picture based subtitle format used on BDs/HD-DVDs
Duration                                 : 2 h 9 min
Bit rate                                 : 21.0 kb/s
Count of elements                        : 3245
Stream size                              : 19.4 MiB (0%)
Title                                    : Chinese-PGS
Language                                 : Chinese
Default                                  : No
Forced                                   : No

Menu
00:00:00.000                             : en:Chapter 1
00:06:20.671                             : en:Chapter 2
00:14:11.642                             : en:Chapter 3
00:22:12.873                             : en:Chapter 4
00:26:43.059                             : en:Chapter 5
00:31:29.721                             : en:Chapter 6
00:35:03.935                             : en:Chapter 7
00:42:49.733                             : en:Chapter 8
00:48:31.533                             : en:Chapter 9
00:59:38.783                             : en:Chapter 10
01:07:57.907                             : en:Chapter 11
01:17:30.604                             : en:Chapter 12
01:27:25.323                             : en:Chapter 13
01:36:08.721                             : en:Chapter 14
01:42:35.732                             : en:Chapter 15
01:49:19.886                             : en:Chapter 16
01:54:57.599                             : en:Chapter 17
02:00:37.521                             : en:Chapter 18




972db7801b883a304884199b5d3e554e.jpg
6233741b007fcd6f3ea860fc6486a2d0.jpg

371dc509d5901db892cd9f0a8dc159a8.jpg
f323cd286c95520aca25513f83d6f2fc.jpg

33b671b45d14cdf7949a8fba807506f8.jpg
0824c8b32ac3c1cbf18a040874459843.jpg





0ee6fc5ec473d15308c9535c98323fda.torrent (98.53 KB, 下载次数: 14)
回复

使用道具 举报

  • TA的每日心情
    开心
    昨天 12:32
  • 签到天数: 171 天

    [LV.7]常住居民III

    发表于 2018-2-25 13:39:46 | 显示全部楼层
    时代影视论坛正的很棒!
    回复 支持 反对

    使用道具 举报

  • TA的每日心情
    奋斗
    昨天 19:47
  • 签到天数: 44 天

    [LV.5]常住居民I

    发表于 2018-3-1 09:55:10 | 显示全部楼层
    雷神3 Thor.Ragnarok.2017.2160p.BluRay.x264.8bit.SDR.DTS-SWTYBLZ 39GB
    回复 支持 反对

    使用道具 举报

  • TA的每日心情
    奋斗
    昨天 19:47
  • 签到天数: 44 天

    [LV.5]常住居民I

    发表于 2018-3-6 15:34:52 | 显示全部楼层
    雷神3 Thor.Ragnarok.2017.2160p.BluRay.x264.8bit.SDR.DTS-SWTYBLZ 39GB
    回复 支持 反对

    使用道具 举报

    您需要登录后才可以回帖 登录 | 立即注册

    本版积分规则

    Archiver|手机版|小黑屋|时代影视论坛(NowYS小组) ( 宁ICP备16002180号-4 )

    GMT+8, 2018-4-26 17:14 , Processed in 1.197585 second(s), 29 queries , Gzip On.

    Powered by 时代影视 X3.2

    © 2001-2013 Comsenz Inc.

    快速回复 返回顶部 返回列表