时代影视论坛(NowYS小组)

 找回密码
 立即注册
搜索
查看: 2154|回复: 0

[1080p] [BT下载]狂暴机械鲨鱼 Roboshark.2015.1080p.AMZN.WEBRip.DDP5.1.x264-ABM 7.3GB

[复制链接]

该用户从未签到

发表于 2018-3-7 18:18:26 | 显示全部楼层 |阅读模式
台湾UU

马上注册,结交更多好友,享用更多功能,让你轻松玩转社区。

您需要 登录 才可以下载或查看,没有帐号?立即注册

x
[2015] [欧美] [科幻] [WEB-1080P][BT下载]狂暴机械鲨鱼 Roboshark.2015.1080p.AMZN.WEBRip.DDP5.1.x264-ABM 7.3GB



-->

Roboshark.2015.1080p.AMZN.WEBRip.DDP5.1.x264-ABM

Roboshark.2015.1080p.AMZN.WEBRip.DDP5.1.x264-ABM

◎译  名 狂暴机械鲨鱼
◎片  名 Roboshark
◎年  代 2015
◎产  地 保加利亚/加拿大
◎类  别 喜剧/动作/科幻/惊悚
◎语  言 英语
◎IMDb评分  3.2/10 from 682 users
◎IMDb链接  http://www.imdb.com/title/tt4443784/
◎BT之家整理 http://www.btbtt.co
◎导  演 Jeffery Scott Lando
◎主  演 Alexis Peterman
      马特·里皮 Matt Rippy
      Nigel Barber
      Vanessa Grasse
      Isaac Haig
      Laura Dale
      Vlado Mihailov
      Derek Morse
      Kicker Robinson
      Lorenzo Estebanez
      Kitodar Todorov
      Hristo Balabanov
      Anton Poriazov
      阿塔纳斯·斯雷布雷夫 Atanas Srebrev
      Anton Trendafilov


◎简  介


  An alien ship comes into earth orbit to drop a probe . The probe lands in the ocean only to be eaten by a Great White. Soon he turns into RoboShark much to thedismay of a Nuclear Sub in the area. Once finished he heads to Portland | (reality is Seattle) where he is already being tweeted of his actions | while RoboShark'sactions are being followed by a news crew | while the daughter of the reporter he follows is the very same daughters whose tweet he is following. Now the US NAVY isafter RoboShark while he burrows away through rock as well as water to the delight of his tweeters. Causing damage along the way only to have a final confrontationwith the Navy at the iconic symbol of Seattle| the Space Needle.


Video
ID                                       : 1
Format                                   : AVC
Format/Info                              : Advanced Video Codec
Format profile                           : High@L4
Format settings                          : CABAC / 4 Ref Frames
Format settings, CABAC                   : Yes
Format settings, ReFrames                : 4 frames
Codec ID                                 : V_MPEG4/ISO/AVC
Duration                                 : 1 h 27 min
Bit rate mode                            : Variable
Bit rate                                 : 11.2 Mb/s
Maximum bit rate                         : 15.0 Mb/s
Width                                    : 1 920 pixels
Height                                   : 1 080 pixels
Display aspect ratio                     : 16:9
Frame rate mode                          : Constant
Frame rate                               : 23.976 (24000/1001) FPS
Color space                              : YUV
Chroma subsampling                       : 4:2:0
Bit depth                                : 8 bits
Scan type                                : Progressive
Bits/(Pixel*Frame)                       : 0.225
Stream size                              : 6.84 GiB (93%)
Writing library                          : x264 core 148 r2623 d5b2374
Encoding settings                        : cabac=1 / ref=4 / deblock=1:-1:-1 / analyse=0x3:0x133 / me=umh / subme=9 / psy=1 / psy_rd=1.00:0.15 / mixed_ref=1 / me_range=24 / chroma_me=1 / trellis=2 / 8x8dct=1 / cqm=0 / deadzone=21,11 / fast_pskip=1 / chroma_qp_offset=-3 / threads=34 / lookahead_threads=5 / sliced_threads=0 / nr=150 / decimate=1 / interlaced=0 / bluray_compat=0 / constrained_intra=0 / bframes=8 / b_pyramid=2 / b_adapt=2 / b_bias=0 / direct=3 / weightb=1 / open_gop=0 / weightp=2 / keyint=120 / keyint_min=61 / scenecut=0 / intra_refresh=0 / rc_lookahead=120 / rc=crf / mbtree=1 / crf=18.0 / qcomp=0.60 / qpmin=0 / qpmax=69 / qpstep=4 / vbv_maxrate=15000 / vbv_bufsize=31250 / crf_max=0.0 / nal_hrd=vbr / filler=0 / ip_ratio=1.40 / aq=3:1.00
Language                                 : English
Default                                  : Yes
Forced                                   : No
Color range                              : Limited
Color primaries                          : BT.709
Transfer characteristics                 : BT.709
Matrix coefficients                      : BT.709

Audio
ID                                       : 2
Format                                   : E-AC-3
Format/Info                              : Enhanced Audio Coding 3
Codec ID                                 : A_EAC3
Duration                                 : 1 h 27 min
Bit rate mode                            : Constant
Bit rate                                 : 640 kb/s
Channel(s)                               : 6 channels
Channel positions                        : Front: L C R, Side: L R, LFE
Sampling rate                            : 48.0 kHz
Frame rate                               : 187.500 FPS (256 SPF)
Compression mode                         : Lossy
Stream size                              : 401 MiB (5%)
Language                                 : English
Service kind                             : Complete Main
Default                                  : Yes
Forced                                   : No

Text #1
ID                                       : 3
Format                                   : UTF-8
Codec ID                                 : S_TEXT/UTF8
Codec ID/Info                            : UTF-8 Plain Text
Language                                 : English
Default                                  : No
Forced                                   : No

Text #2
ID                                       : 4
Format                                   : UTF-8
Codec ID                                 : S_TEXT/UTF8
Codec ID/Info                            : UTF-8 Plain Text
Title                                    : SDH
Language                                 : English
Default                                  : No
Forced                                   : No



565836c6329512f1ff215adc8252fe5c.jpg
258b8b5d89079f2ab5fbe796d2f9f92d.jpg



bc79072a6f21cacfc033ea223051cef0.torrent (74.29 KB, 下载次数: 8)
回复

使用道具 举报

您需要登录后才可以回帖 登录 | 立即注册

本版积分规则

Archiver|手机版|小黑屋|时代影视论坛 ( 宁ICP备16002180号-4 )

GMT+8, 2018-10-18 03:12 , Processed in 0.115448 second(s), 26 queries , Gzip On.

Powered by 时代影视 X3.2

© 2001-2013 Comsenz Inc.

快速回复 返回顶部 返回列表