时代影视论坛(NowYS小组)

 找回密码
 立即注册
搜索
查看: 2357|回复: 0

[BT下载]正义联盟 2017.2160p.BluRay.x265.10bit.SDR.DTS-SWTYBLZ 46GB

[复制链接]

该用户从未签到

发表于 2018-3-8 15:57:32 | 显示全部楼层 |阅读模式
台湾UU

马上注册,结交更多好友,享用更多功能,让你轻松玩转社区。

您需要 登录 才可以下载或查看,没有帐号?立即注册

x
[2017] [欧美] [科幻] [BD-4K][BT下载]正义联盟 2017.2160p.BluRay.x265.10bit.SDR.DTS-SWTYBLZ 46GB



-->

Justice.League.2017.2160p.BluRay.x265.10bit.SDR.DTS-HD.MA.TrueHD.7.1.Atmos-SWTYBLZ

Justice.League.2017.2160p.BluRay.x265.10bit.SDR.DTS-HD.MA.TrueHD.7.1.Atmos-SWTYBLZ

◎译  名 正义联盟/Justice League Mortal/Justice League of America/The Justice League Part One
◎片  名 Justice League
◎年  代 2017
◎产  地 美国
◎类  别 动作/科幻/奇幻/冒险
◎语  言 英语/冰岛语/俄语
◎上映日期 2017-11-17(美国/中国大陆)
◎IMDb评分  6.8/10 from 203,240 users
◎IMDb链接  http://www.imdb.com/title/tt0974015/
◎豆瓣评分 6.7/10 from 136,136 users
◎豆瓣链接 https://movie.douban.com/subject/2158490/
◎帖子整理 http://www.btbtt.co 
◎片  长 120分钟
◎导  演 扎克·施奈德 Zack Snyder
◎编  剧 扎克·施奈德 Zack Snyder / 克里斯·特里奥 Chris Terrio / 乔斯·韦登 Joss Whedon / 比尔·芬格 Bill Finger / 鲍勃·凯恩 Bob Kane / 乔·舒斯特 Joe Shuster / 杰里·西格尔 Jerry Siegel / 威廉·马斯顿 William M. Marston
◎主  演 本·阿弗莱克 Ben Affleck
       亨利·卡维尔 Henry Cavill
       盖尔·加朵 Gal Gadot
       埃兹拉·米勒 Ezra Miller
       杰森·莫玛 Jason Momoa
       雷·费舍尔 Ray Fisher
       杰瑞米·艾恩斯 Jeremy Irons
       艾米·亚当斯 Amy Adams
       戴安·琳恩 Diane Lane
       康妮·尼尔森 Connie Nielsen
       J·K·西蒙斯 J.K. Simmons
       塞伦·希德 Ciarán Hinds
       艾梅柏·希尔德 Amber Heard
       乔·莫顿 Joe Morton
       丽莎·洛文·孔斯利 Lisa Loven Kongsli
       大卫·休里斯 David Thewlis
       迈克尔·麦克埃尔哈顿 Michael McElhatton
       理查德·克里弗特 Richard Clifford
       Ingvar Eggert Sigur?sson
       比利·克鲁德普 Billy Crudup
       赛吉·康斯坦斯 Sergi Constance
       乔·曼根尼罗 Joe Manganiello
       杰西·艾森伯格 Jesse Eisenberg


◎标  签 DC | 超级英雄 | 美国 | 科幻 | 漫画改编 | 2017 | 动作 | DCEU


◎简  介


  受到超人无私奉献的影响,蝙蝠侠重燃了对人类的信心,接受了新盟友——神奇女侠(戴安娜·普林斯)的帮助,去对抗更加强大的敌人。蝙蝠侠和神奇女侠一同寻找并招募了一支超人类联盟来抵挡新觉醒的威胁。但尽管这支队伍集结了超人、蝙蝠侠、神奇女侠、闪电侠、海王和钢骨等人,他们似乎无法阻止敌人对地球的进攻……


◎获奖情况


  第4届豆瓣电影年度榜单 ?(2017)
  11月最受关注电影(提名)
  
  第3届豆瓣电影年度榜单 ?(2016)
  最值得期待的外语电影(提名)



Video
ID                                       : 1
Format                                   : HEVC
Format/Info                              : High Efficiency Video Coding
Format profile                           : Main 10@L5.1@High
Codec ID                                 : V_MPEGH/ISO/HEVC
Duration                                 : 2 h 0 min
Bit rate                                 : 47.2 Mb/s
Width                                    : 3 840 pixels
Height                                   : 2 160 pixels
Display aspect ratio                     : 16:9
Frame rate mode                          : Constant
Frame rate                               : 23.976 (24000/1001) FPS
Color space                              : YUV
Chroma subsampling                       : 4:2:0
Bit depth                                : 10 bits
Bits/(Pixel*Frame)                       : 0.237
Stream size                              : 39.6 GiB (85%)
Title                                    : Justice.League.2017.2160p.BluRay.x265.10bit.SDR.DTS-HD.MA.TrueHD.7.1.Atmos-SWTYBLZ
Writing library                          : x265 2.5b4a5bcfe29c7:[Windows][GCC 4.9.3][64 bit] 10bit
Encoding settings                        : cpuid=1173503 / frame-threads=16 / numa-pools=24,24,24,24 / wpp / no-pmode / no-pme / no-psnr / no-ssim / log-level=2 / input-csp=1 / input-res=3840x2160 / interlace=0 / total-frames=0 / level-idc=51 / high-tier=1 / uhd-bd=0 / ref=3 / no-allow-non-conformance / repeat-headers / annexb / aud / hrd / info / hash=0 / no-temporal-layers / no-open-gop / min-keyint=1 / keyint=24 / bframes=4 / b-adapt=2 / b-pyramid / bframe-bias=0 / rc-lookahead=25 / lookahead-slices=4 / scenecut=40 / no-intra-refresh / ctu=64 / min-cu-size=8 / no-rect / no-amp / max-tu-size=32 / tu-inter-depth=1 / tu-intra-depth=1 / limit-tu=0 / rdoq-level=0 / dynamic-rd=0.00 / no-ssim-rd / signhide / no-tskip / nr-intra=0 / nr-inter=0 / no-constrained-intra / strong-intra-smoothing / max-merge=2 / limit-refs=3 / no-limit-modes / me=1 / subme=2 / merange=57 / temporal-mvp / weightp / no-weightb / no-analyze-src-pics / deblock=0:0 / no-sao / no-sao-non-deblock / rd=3 / no-early-skip / rskip / no-fast-intra / no-tskip-fast / no-cu-lossless / no-b-intra / rdpenalty=0 / psy-rd=2.00 / psy-rdoq=0.00 / no-rd-refine / analysis-reuse-mode=0 / no-lossless / cbqpoffs=0 / crqpoffs=0 / rc=crf / crf=16.0 / qcomp=0.60 / qpstep=4 / stats-write=0 / stats-read=0 / vbv-maxrate=160000 / vbv-bufsize=160000 / vbv-init=0.9 / crf-max=0.0 / crf-min=0.0 / ipratio=1.40 / pbratio=1.30 / aq-mode=1 / aq-strength=1.00 / cutree / zone-count=0 / no-strict-cbr / qg-size=32 / no-rc-grain / qpmax=69 / qpmin=0 / no-const-vbv / sar=1 / overscan=0 / videoformat=5 / range=0 / colorprim=2 / transfer=2 / colormatrix=2 / chromaloc=0 / display-window=0 / max-cll=0,0 / min-luma=0 / max-luma=1023 / log2-max-poc-lsb=8 / vui-timing-info / vui-hrd-info / slices=1 / opt-qp-pps / opt-ref-list-length-pps / no-multi-pass-opt-rps / scenecut-bias=0.05 / no-opt-cu-delta-qp / no-aq-motion / no-hdr / no-hdr-opt / no-dhdr10-opt / analysis-reuse-level=5 / scale-factor=0 / refine-intra=0 / refine-inter=0 / refine-mv=0 / no-limit-sao / ctu-info=0
Default                                  : Yes
Forced                                   : No

Audio #1
ID                                       : 2
Format                                   : TrueHD
Format profile                           : TrueHD+Atmos / TrueHD
Codec ID                                 : A_TRUEHD
Duration                                 : 2 h 0 min
Bit rate mode                            : Variable
Bit rate                                 : 3 879 kb/s
Maximum bit rate                         : 6 366 kb/s
Channel(s)                               : Object Based / 8 channels
Channel positions                        : Object Based / Front: L C R, Side: L R, Back: L R, LFE
Sampling rate                            :  / 48.0 kHz
Frame rate                               : 1 200.000 FPS (40 SPF)
Compression mode                         : Lossless
Stream size                              : 3.25 GiB (7%)
Title                                    : Justice.League.2017.2160p.BluRay.x265.10bit.SDR.DTS-HD.MA.TrueHD.7.1.Atmos-SWTYBLZ
Language                                 : English
Default                                  : Yes
Forced                                   : No

Audio #2
ID                                       : 3
Format                                   : DTS
Format/Info                              : Digital Theater Systems
Format profile                           : MA / Core
Codec ID                                 : A_DTS
Duration                                 : 2 h 0 min
Bit rate mode                            : Variable / Constant
Bit rate                                 : 3 606 kb/s / 1 509 kb/s
Channel(s)                               : 8 channels / 6 channels
Channel positions                        : Front: L C R, Side: L R, Back: L R, LFE / Front: L C R, Side: L R, LFE
Sampling rate                            : 48.0 kHz
Frame rate                               : 93.750 FPS (512 SPF)
Bit depth                                : 24 bits
Compression mode                         : Lossless / Lossy
Stream size                              : 3.02 GiB (6%)
Title                                    : Justice.League.2017.2160p.BluRay.x265.10bit.SDR.DTS-HD.MA.TrueHD.7.1.Atmos-SWTYBLZ
Language                                 : English
Default                                  : No
Forced                                   : No

Audio #3
ID                                       : 4
Format                                   : AC-3
Format/Info                              : Audio Coding 3
Codec ID                                 : A_AC3
Duration                                 : 2 h 0 min
Bit rate mode                            : Constant
Bit rate                                 : 640 kb/s
Channel(s)                               : 6 channels
Channel positions                        : Front: L C R, Side: L R, LFE
Sampling rate                            : 48.0 kHz
Frame rate                               : 31.250 FPS (1536 SPF)
Bit depth                                : 16 bits
Compression mode                         : Lossy
Stream size                              : 550 MiB (1%)
Title                                    : Justice.League.2017.2160p.BluRay.x265.10bit.SDR.DTS-HD.MA.TrueHD.7.1.Atmos-SWTYBLZ
Language                                 : English
Service kind                             : Complete Main
Default                                  : No
Forced                                   : No

Text #1
ID                                       : 5
Format                                   : UTF-8
Codec ID                                 : S_TEXT/UTF8
Codec ID/Info                            : UTF-8 Plain Text
Duration                                 : 1 h 58 min
Bit rate                                 : 47 b/s
Count of elements                        : 1506
Stream size                              : 41.2 KiB (0%)
Title                                    : English-SRT
Language                                 : English
Default                                  : Yes
Forced                                   : No

Text #2
ID                                       : 6
Format                                   : PGS
Muxing mode                              : zlib
Codec ID                                 : S_HDMV/PGS
Codec ID/Info                            : Picture based subtitle format used on BDs/HD-DVDs
Duration                                 : 1 h 59 min
Bit rate                                 : 29.0 kb/s
Count of elements                        : 3014
Stream size                              : 24.7 MiB (0%)
Title                                    : English-PGS
Language                                 : English
Default                                  : No
Forced                                   : No

Text #3
ID                                       : 7
Format                                   : PGS
Muxing mode                              : zlib
Codec ID                                 : S_HDMV/PGS
Codec ID/Info                            : Picture based subtitle format used on BDs/HD-DVDs
Duration                                 : 1 h 58 min
Bit rate                                 : 17.5 kb/s
Count of elements                        : 3061
Stream size                              : 14.8 MiB (0%)
Title                                    : Japanese-PGS
Language                                 : Japanese
Default                                  : No
Forced                                   : No

Text #4
ID                                       : 8
Format                                   : PGS
Muxing mode                              : zlib
Codec ID                                 : S_HDMV/PGS
Codec ID/Info                            : Picture based subtitle format used on BDs/HD-DVDs
Duration                                 : 1 h 31 min
Bit rate                                 : 1 621 b/s
Count of elements                        : 843
Stream size                              : 1.06 MiB (0%)
Title                                    : Japanese-PGS
Language                                 : Japanese
Default                                  : No
Forced                                   : No

Text #5
ID                                       : 9
Format                                   : PGS
Muxing mode                              : zlib
Codec ID                                 : S_HDMV/PGS
Codec ID/Info                            : Picture based subtitle format used on BDs/HD-DVDs
Duration                                 : 1 h 59 min
Bit rate                                 : 21.0 kb/s
Count of elements                        : 2498
Stream size                              : 17.9 MiB (0%)
Title                                    : French-PGS
Language                                 : French
Default                                  : No
Forced                                   : No

Text #6
ID                                       : 10
Format                                   : PGS
Muxing mode                              : zlib
Codec ID                                 : S_HDMV/PGS
Codec ID/Info                            : Picture based subtitle format used on BDs/HD-DVDs
Duration                                 : 1 h 59 min
Bit rate                                 : 24.4 kb/s
Count of elements                        : 2426
Stream size                              : 20.8 MiB (0%)
Title                                    : Spanish-PGS
Language                                 : Spanish
Default                                  : No
Forced                                   : No

Text #7
ID                                       : 11
Format                                   : PGS
Muxing mode                              : zlib
Codec ID                                 : S_HDMV/PGS
Codec ID/Info                            : Picture based subtitle format used on BDs/HD-DVDs
Duration                                 : 1 h 59 min
Bit rate                                 : 23.5 kb/s
Count of elements                        : 2428
Stream size                              : 20.0 MiB (0%)
Title                                    : Chinese-PGS
Language                                 : Chinese
Default                                  : No
Forced                                   : No

Text #8
ID                                       : 12
Format                                   : PGS
Muxing mode                              : zlib
Codec ID                                 : S_HDMV/PGS
Codec ID/Info                            : Picture based subtitle format used on BDs/HD-DVDs
Duration                                 : 1 h 59 min
Bit rate                                 : 21.3 kb/s
Count of elements                        : 2504
Stream size                              : 18.2 MiB (0%)
Title                                    : Chinese-PGS
Language                                 : Chinese
Default                                  : No
Forced                                   : No

Text #9
ID                                       : 13
Format                                   : PGS
Muxing mode                              : zlib
Codec ID                                 : S_HDMV/PGS
Codec ID/Info                            : Picture based subtitle format used on BDs/HD-DVDs
Duration                                 : 1 h 59 min
Bit rate                                 : 15.5 kb/s
Count of elements                        : 2548
Stream size                              : 13.2 MiB (0%)
Title                                    : Korean-PGS
Language                                 : Korean
Default                                  : No
Forced                                   : No

Text #10
ID                                       : 14
Format                                   : PGS
Muxing mode                              : zlib
Codec ID                                 : S_HDMV/PGS
Codec ID/Info                            : Picture based subtitle format used on BDs/HD-DVDs
Duration                                 : 1 h 59 min
Bit rate                                 : 24.1 kb/s
Count of elements                        : 2498
Stream size                              : 20.5 MiB (0%)
Title                                    : Spanish-PGS
Language                                 : Spanish
Default                                  : No
Forced                                   : No

Text #11
ID                                       : 15
Format                                   : PGS
Muxing mode                              : zlib
Codec ID                                 : S_HDMV/PGS
Codec ID/Info                            : Picture based subtitle format used on BDs/HD-DVDs
Duration                                 : 1 h 59 min
Bit rate                                 : 24.4 kb/s
Count of elements                        : 2498
Stream size                              : 20.7 MiB (0%)
Title                                    : Portuguese-PGS
Language                                 : Portuguese
Default                                  : No
Forced                                   : No

Text #12
ID                                       : 16
Format                                   : PGS
Muxing mode                              : zlib
Codec ID                                 : S_HDMV/PGS
Codec ID/Info                            : Picture based subtitle format used on BDs/HD-DVDs
Duration                                 : 1 h 59 min
Bit rate                                 : 13.0 kb/s
Count of elements                        : 2520
Stream size                              : 11.1 MiB (0%)
Title                                    : Arabic-PGS
Language                                 : Arabic
Default                                  : No
Forced                                   : No

Text #13
ID                                       : 17
Format                                   : PGS
Muxing mode                              : zlib
Codec ID                                 : S_HDMV/PGS
Codec ID/Info                            : Picture based subtitle format used on BDs/HD-DVDs
Duration                                 : 1 h 59 min
Bit rate                                 : 22.4 kb/s
Count of elements                        : 2506
Stream size                              : 19.1 MiB (0%)
Title                                    : Czech-PGS
Language                                 : Czech
Default                                  : No
Forced                                   : No

Text #14
ID                                       : 18
Format                                   : PGS
Muxing mode                              : zlib
Codec ID                                 : S_HDMV/PGS
Codec ID/Info                            : Picture based subtitle format used on BDs/HD-DVDs
Duration                                 : 1 h 59 min
Bit rate                                 : 23.1 kb/s
Count of elements                        : 1870
Stream size                              : 19.7 MiB (0%)
Title                                    : Danish-PGS
Language                                 : Danish
Default                                  : No
Forced                                   : No

Text #15
ID                                       : 19
Format                                   : PGS
Muxing mode                              : zlib
Codec ID                                 : S_HDMV/PGS
Codec ID/Info                            : Picture based subtitle format used on BDs/HD-DVDs
Duration                                 : 1 h 59 min
Bit rate                                 : 23.0 kb/s
Count of elements                        : 2494
Stream size                              : 19.6 MiB (0%)
Title                                    : Finnish-PGS
Language                                 : Finnish
Default                                  : No
Forced                                   : No

Text #16
ID                                       : 20
Format                                   : PGS
Muxing mode                              : zlib
Codec ID                                 : S_HDMV/PGS
Codec ID/Info                            : Picture based subtitle format used on BDs/HD-DVDs
Duration                                 : 1 h 59 min
Bit rate                                 : 23.0 kb/s
Count of elements                        : 2304
Stream size                              : 19.6 MiB (0%)
Title                                    : Norwegian-PGS
Language                                 : Norwegian
Default                                  : No
Forced                                   : No

Text #17
ID                                       : 21
Format                                   : PGS
Muxing mode                              : zlib
Codec ID                                 : S_HDMV/PGS
Codec ID/Info                            : Picture based subtitle format used on BDs/HD-DVDs
Duration                                 : 1 h 59 min
Bit rate                                 : 25.3 kb/s
Count of elements                        : 2496
Stream size                              : 21.6 MiB (0%)
Title                                    : Polish-PGS
Language                                 : Polish
Default                                  : No
Forced                                   : No

Text #18
ID                                       : 22
Format                                   : PGS
Muxing mode                              : zlib
Codec ID                                 : S_HDMV/PGS
Codec ID/Info                            : Picture based subtitle format used on BDs/HD-DVDs
Duration                                 : 1 h 59 min
Bit rate                                 : 22.9 kb/s
Count of elements                        : 2498
Stream size                              : 19.5 MiB (0%)
Title                                    : Swedish-PGS
Language                                 : Swedish
Default                                  : No
Forced                                   : No

Menu
00:00:00.000                             : en:Chapter 1
00:10:56.155                             : en:Chapter 2
00:19:16.488                             : en:Chapter 3
00:30:41.673                             : en:Chapter 4
00:40:19.667                             : en:Chapter 5
00:49:56.535                             : en:Chapter 6
01:01:26.891                             : en:Chapter 7
01:09:41.552                             : en:Chapter 8
01:19:18.587                             : en:Chapter 9
01:30:34.512                             : en:Chapter 10
01:40:33.569                             : en:Chapter 11
01:48:43.058                             : en:Chapter 12




10873aa72696e6837142381f1c3d3caf.jpg
6e8501d6f613b05cb86a48bad6f37260.jpg

c498e450c91182a7f1669d60e7cc7824.jpg
c9cf61dba61cf334e58a85c7d7a040ca.jpg

6711b7bd7f79de1c9083bb54d5cb0ee0.jpg
fb430461f051095554109a0a6179c49e.jpg



e10c4286403a44d449cd70af87e48f45.torrent (49.84 KB, 下载次数: 11)
回复

使用道具 举报

您需要登录后才可以回帖 登录 | 立即注册

本版积分规则

Archiver|手机版|小黑屋|时代影视论坛 ( 宁ICP备16002180号-4 )

GMT+8, 2018-12-10 16:22 , Processed in 0.123721 second(s), 26 queries , Gzip On.

Powered by 时代影视 X3.2

© 2001-2013 Comsenz Inc.

快速回复 返回顶部 返回列表