时代影视论坛(NowYS小组)

 找回密码
 立即注册
搜索
查看: 2131|回复: 0

[1080p] [BT下载]扭转乾坤 The.Changeover.2017.1080p.WEB-DL.DD5.1.H264-FGT 3.19GB

[复制链接]

该用户从未签到

发表于 2018-3-8 15:58:19 | 显示全部楼层 |阅读模式
台湾UU

马上注册,结交更多好友,享用更多功能,让你轻松玩转社区。

您需要 登录 才可以下载或查看,没有帐号?立即注册

x
[2017] [欧美] [惊悚] [WEB-1080P][BT下载]扭转乾坤 The.Changeover.2017.1080p.WEB-DL.DD5.1.H264-FGT 3.19GB



-->

The.Changeover.2017.1080p.WEB-DL.DD5.1.H264-FGT

The.Changeover.2017.1080p.WEB-DL.DD5.1.H264-FGT

◎译  名 扭转乾坤
◎片  名 The Changeover
◎年  代 2017
◎产  地 英国
◎类  别 奇幻/惊悚/恐怖
◎语  言 英语
◎上映日期 2017-09-18(新西兰)
◎IMDb评分  7.0/10 from 220 users
◎IMDb链接  http://www.imdb.com/title/tt5699060/
◎帖子整理 http://www.btbtt.co
◎片  长 95分钟
◎导  演 Miranda Harcourt / Stuart McKenzie
◎主  演 露西·劳莱丝 Lucy Lawless
      梅兰妮·林斯基 Melanie Lynskey
      Nicholas Galitzine
      蒂莫西·斯波 Timothy Spall


◎简  介


  Based on the Carnegie Medal winning novel by Margeret Mahy. Sixteen year-old Laura Chant lives with her mother and four-year-old brother Jacko in a poor new suburb on the edge of a partially demolished Christchurch, New Zealand. Laura is drawn into a supernatural battle with an ancient spirit who attacks Jacko and slowly drains the life out of him as the spirit becomes ever younger. Laura discovers her true identity and the supernatural ability within her, and must harness it to save her brother's life


Video
ID                                       : 1
Format                                   : AVC
Format/Info                              : Advanced Video Codec
Format profile                           : High@L4
Format settings                          : CABAC / 5 Ref Frames
Format settings, CABAC                   : Yes
Format settings, ReFrames                : 5 frames
Codec ID                                 : V_MPEG4/ISO/AVC
Duration                                 : 1 h 32 min
Bit rate                                 : 4 544 kb/s
Width                                    : 1 912 pixels
Height                                   : 848 pixels
Display aspect ratio                     : 2.25:1
Frame rate mode                          : Constant
Frame rate                               : 23.976 (24000/1001) FPS
Color space                              : YUV
Chroma subsampling                       : 4:2:0
Bit depth                                : 8 bits
Scan type                                : Progressive
Bits/(Pixel*Frame)                       : 0.117
Stream size                              : 2.94 GiB (92%)
Title                                    : The.Changeover.2017.1080p.WEB-DL.DD5.1.H264-FGT
Language                                 : English
Default                                  : Yes
Forced                                   : No
Color range                              : Limited
Color primaries                          : BT.709
Transfer characteristics                 : BT.709
Matrix coefficients                      : BT.709

Audio
ID                                       : 2
Format                                   : AC-3
Format/Info                              : Audio Coding 3
Codec ID                                 : A_AC3
Duration                                 : 1 h 32 min
Bit rate mode                            : Constant
Bit rate                                 : 384 kb/s
Channel(s)                               : 6 channels
Channel positions                        : Front: L C R, Side: L R, LFE
Sampling rate                            : 48.0 kHz
Frame rate                               : 31.250 FPS (1536 SPF)
Bit depth                                : 16 bits
Compression mode                         : Lossy
Delay relative to video                  : -42 ms
Stream size                              : 255 MiB (8%)
Title                                    : The.Changeover.2017.1080p.WEB-DL.DD5.1.H264-FGT
Language                                 : English
Service kind                             : Complete Main
Default                                  : Yes
Forced                                   : No

Menu
00:00:00.000                             : en:1
00:09:14.000                             : en:2
00:19:22.000                             : en:3
00:27:02.000                             : en:4
00:36:47.000                             : en:5
00:47:09.000                             : en:6
00:56:24.000                             : en:7
01:07:18.000                             : en:8
01:20:12.000                             : en:9
01:27:33.000                             : en:10



a56944c105a94c51e4f439f16a1571df.jpg
c8eba60867499af7b2328f605ff8d2c3.jpg



d88a5ca6947bd0b01c66152cfe8d0d5b.torrent (64.4 KB, 下载次数: 11)
回复

使用道具 举报

您需要登录后才可以回帖 登录 | 立即注册

本版积分规则

Archiver|手机版|小黑屋|时代影视论坛 ( 宁ICP备16002180号-4 )

GMT+8, 2018-10-18 01:54 , Processed in 0.113990 second(s), 26 queries , Gzip On.

Powered by 时代影视 X3.2

© 2001-2013 Comsenz Inc.

快速回复 返回顶部 返回列表