时代影视论坛(NowYS小组)

 找回密码
 立即注册
搜索
查看: 2445|回复: 7

[BT下载]星球大战8:最后的绝地武士 Star.Wars.The.Last.Jedi.2017.1080p.BluRay.x264 ...

[复制链接]

该用户从未签到

发表于 2018-3-10 19:07:00 | 显示全部楼层 |阅读模式
台湾UU

马上注册,结交更多好友,享用更多功能,让你轻松玩转社区。

您需要 登录 才可以下载或查看,没有帐号?立即注册

x
[2017] [欧美] [科幻] [BD-1080P][BT下载]星球大战8:最后的绝地武士 Star.Wars.The.Last.Jedi.2017.1080p.BluRay.x264-SPARKS 10.93G



-->
39f92f8524e3fa83972f8a5c79539ffb.jpg



◎译  名 星球大战8:最后的绝地武士/星球大战:最后绝地武士(港)/星球大战8/星战8

◎片  名 Star Wars: The Last Jedi
◎年  代 2017
◎产  地 美国
◎类  别 动作/科幻/冒险
◎语  言 英语
◎上映日期 2017-12-15(美国)/2018-01-05(中国大陆)
◎IMDb评分  7.5/10 from 323,040 users
◎IMDb链接  http://www.imdb.com/title/tt2527336/
◎豆瓣评分 7.3/10 from 65,660 users
◎豆瓣链接 https://movie.douban.com/subject/22265634/
◎片  长 152分钟
◎导  演 莱恩·约翰逊 Rian Johnson
◎主  演 马克·哈米尔 Mark Hamill
      凯丽·费雪 Carrie Fisher
      黛西·雷德利 Daisy Ridley
      亚当·德赖弗 Adam Driver
      约翰·博耶加 John Boyega
      奥斯卡·伊萨克 Oscar Isaac
      安迪·瑟金斯 Andy Serkis
      露皮塔·尼永奥 Lupita Nyong'o
      多姆纳尔·格里森 Domhnall Gleeson
      安东尼·丹尼尔斯 Anthony Daniels
      格温多兰·克里斯蒂 Gwendoline Christie
      凯莉·玛丽·陈 Kelly Marie Tran
      劳拉·邓恩 Laura Dern
      本尼西奥·德尔·托罗 Benicio Del Toro
      弗兰克·奥兹 Frank Oz
      比莉·洛德 Billie Lourd
      阿曼达·劳伦斯 Amanda Lawrence
      吉米·维 Jimmy Vee
      贾斯汀·塞洛克斯 Justin Theroux
      蒂姆·罗斯 Tim Rose
      汤姆·凯恩 Tom Kane
      亚德里安·埃德蒙松 Adrian Edmondson
      马克·路易斯·琼斯 Mark Lewis Jones
      赫敏·科菲尔德 Hermione Corfield
      吴青芸 Thanh Van Ngo
      诺阿·西甘 Noah Segan
      保罗·卡塞 Paul Kasey
      米凯拉·科尔 Michaela Coel
      普瑞扬咖·伯福德 Priyanga Burford
      纳温·乔杜里 Navin Chowdhry
      安德鲁·杰克 Andrew Jack
      克里斯塔·克拉克 Crystal Clarke
      伊川东吾 Togo Igawa


◎简  介


  《星球大战:最后的绝地武士》承接前作《星球大战:原力觉醒》的剧情,讲述第一军团全面侵袭之下,蕾伊(黛西·雷德利 Daisy Ridley 饰)、芬恩(约翰·博耶加 John Boyega 饰)、波·达默龙(奥斯卡·伊萨克 Oscar Isaac 饰)三位年轻主角各自的抉 择和冒险故事。前作中觉醒强大原力的蕾伊独自寻访隐居的绝地大师卢克·天行者(马克·哈米尔 Mark Hamill 饰),在后者的指导下接受原力训练。芬恩接受了一项几乎不可能完成的任务,为此他不得不勇闯敌营,面对自己的过去。波·达默龙则要适应从战士向领袖的角色转换,这一过程中他也将接受一些血的教训。


◎获奖情况


  第90届奥斯卡金像奖  (2018)
  最佳视觉效果(提名) 尼尔·斯坎伦 / 本·莫里斯 / 克里斯·考博德 / 迈克尔·马尔霍兰
  最佳混音(提名) 伦·克斯 / 斯图尔特·威尔逊 / 大卫·帕克 / 迈克尔·斯曼内科
  最佳音效剪辑(提名) 伦·克斯 / 马修·伍德
  最佳原创配乐(提名) 约翰·威廉姆斯


  第71届英国电影学院奖  (2018)
  电影奖 最佳特殊视觉效果(提名)
  电影奖 最佳音效(提名)


  第22届美国艺术指导工会奖  (2018)
  电影奖 最佳幻想电影艺术指导(提名)


  第16届美国视觉效果协会奖  (2018)
  最佳特效电影视觉效果(提名)
  最佳电影虚拟摄影(提名)
  最佳真人电影模拟动画效果(提名)


  第54届美国声音效果协会奖  (2018)
  真人电影最佳音效(提名)


cc0c5775e2e99b7befbb38180fbab4ce.jpg



Video
ID                                       : 1
Format                                   : AVC
Format/Info                              : Advanced Video Codec
Format profile                           : High@L4.1
Format settings                          : CABAC / 5 Ref Frames
Format settings, CABAC                   : Yes
Format settings, RefFrames               : 5 frames
Codec ID                                 : V_MPEG4/ISO/AVC
Duration                                 : 2 h 31 min
Bit rate                                 : 8 797 kb/s
Width                                    : 1 920 pixels
Height                                   : 808 pixels
Display aspect ratio                     : 2.40:1
Frame rate mode                          : Constant
Frame rate                               : 23.976 FPS
Color space                              : YUV
Chroma subsampling                       : 4:2:0
Bit depth                                : 8 bits
Scan type                                : Progressive
Bits/(Pixel*Frame)                       : 0.237
Stream size                              : 9.33 GiB (85%)
Writing library                          : x264 core 155 r2901 7d0ff22
Encoding settings                        : cabac=1 / ref=5 / deblock=1:0:0 / analyse=0x3:0x133 / me=umh / subme=7 / psy=1 / psy_rd=1.00:0.00 / mixed_ref=1 / me_range=16 / chroma_me=1 / trellis=1 / 8x8dct=1 / cqm=0 / deadzone=21,11 / fast_pskip=0 / chroma_qp_offset=-2 / threads=25 / lookahead_threads=4 / sliced_threads=0 / nr=0 / decimate=1 / interlaced=0 / bluray_compat=0 / constrained_intra=0 / bframes=3 / b_pyramid=2 / b_adapt=1 / b_bias=0 / direct=1 / weightb=1 / open_gop=0 / weightp=2 / keyint=250 / keyint_min=23 / scenecut=40 / intra_refresh=0 / rc_lookahead=40 / rc=2pass / mbtree=1 / bitrate=8797 / ratetol=1.0 / qcomp=0.60 / qpmin=0 / qpmax=69 / qpstep=4 / cplxblur=20.0 / qblur=0.5 / ip_ratio=1.40 / aq=1:1.00
Language                                 : English
Default                                  : Yes
Forced                                   : No


Audio
ID                                       : 2
Format                                   : DTS
Format/Info                              : Digital Theater Systems
Mode                                     : 16
Format settings, Endianness              : Big
Codec ID                                 : A_DTS
Duration                                 : 2 h 31 min
Bit rate mode                            : Constant
Bit rate                                 : 1 509 kb/s
Channel(s)                               : 6 channels
Channel positions                        : Front: L C R, Side: L R, LFE
Sampling rate                            : 48.0 kHz
Frame rate                               : 93.750 FPS (512 SPF)
Bit depth                                : 24 bits
Compression mode                         : Lossy
Stream size                              : 1.60 GiB (15%)
Language                                 : English
Default                                  : Yes
Forced                                   : No


Menu
00:00:00.000                             : en:00:00:00.000
00:00:18.644                             : en:00:00:18.644
00:01:45.731                             : en:00:01:45.731
00:03:11.817                             : en:00:03:11.817
00:07:43.296                             : en:00:07:43.296
00:12:48.434                             : en:00:12:48.434
00:13:44.574                             : en:00:13:44.574
00:16:29.280                             : en:00:16:29.280
00:19:59.281                             : en:00:19:59.281
00:22:51.370                             : en:00:22:51.370
00:26:04.980                             : en:00:26:04.980
00:27:22.850                             : en:00:27:22.850
00:31:24.758                             : en:00:31:24.758
00:32:54.681                             : en:00:32:54.681
00:35:27.667                             : en:00:35:27.667
00:38:11.498                             : en:00:38:11.498
00:41:53.428                             : en:00:41:53.428
00:44:29.542                             : en:00:44:29.542
00:46:51.475                             : en:00:46:51.475
00:51:41.932                             : en:00:51:41.932
00:53:50.060                             : en:00:53:50.060
00:55:41.505                             : en:00:55:41.505
00:57:39.581                             : en:00:57:39.581
00:59:16.636                             : en:00:59:16.636
01:02:05.847                             : en:01:02:05.847
01:03:07.701                             : en:01:03:07.701
01:05:41.729                             : en:01:05:41.729
01:07:03.478                             : en:01:07:03.478
01:10:25.721                             : en:01:10:25.721
01:13:30.323                             : en:01:13:30.323
01:17:43.450                             : en:01:17:43.450
01:20:53.057                             : en:01:20:53.057
01:24:17.970                             : en:01:24:17.970
01:26:23.220                             : en:01:26:23.220
01:27:59.524                             : en:01:27:59.524
01:30:49.361                             : en:01:30:49.361
01:32:54.569                             : en:01:32:54.569
01:35:53.706                             : en:01:35:53.706
01:37:10.616                             : en:01:37:10.616
01:39:12.864                             : en:01:39:12.864
01:42:07.663                             : en:01:42:07.663
01:45:03.714                             : en:01:45:03.714
01:49:35.694                             : en:01:49:35.694
01:52:20.609                             : en:01:52:20.609
01:56:04.749                             : en:01:56:04.749
01:58:52.083                             : en:01:58:52.083
02:03:11.134                             : en:02:03:11.134
02:06:39.759                             : en:02:06:39.759
02:11:43.604                             : en:02:11:43.604
02:15:12.104                             : en:02:15:12.104
02:20:16.700                             : en:02:20:16.700
02:23:39.694                             : en:02:23:39.694


磁力链接:

magnet:?xt=urn:btih:24b6c69b027c67531d2947962a3ce7352292aa23&dn=Star.Wars.The.Last.Jedi.2017.1080p.BluRay.x264-SPARKS




7ecbc939c80dc57326b56f7c2eb79ad6.torrent (55.7 KB, 下载次数: 37)
回复

使用道具 举报

  • TA的每日心情
    开心
    10 小时前
  • 签到天数: 412 天

    [LV.9]以坛为家II

    发表于 2018-3-10 21:22:40 | 显示全部楼层
    感谢楼主分享
    回复 支持 反对

    使用道具 举报

  • TA的每日心情
    开心
    2018-9-9 17:33
  • 签到天数: 79 天

    [LV.6]常住居民II

    发表于 2018-3-10 22:22:45 | 显示全部楼层
    每天都来时代影视论坛看看有什么电影!
    回复 支持 反对

    使用道具 举报

  • TA的每日心情
    无聊
    3 天前
  • 签到天数: 256 天

    [LV.8]以坛为家I

    发表于 2018-3-11 07:37:03 | 显示全部楼层
    Thanks for sharing
    回复 支持 反对

    使用道具 举报

  • TA的每日心情
    开心
    2018-9-10 19:08
  • 签到天数: 138 天

    [LV.7]常住居民III

    发表于 2018-3-11 13:33:01 | 显示全部楼层
    感谢楼主分享精彩电影!
    回复 支持 反对

    使用道具 举报

  • TA的每日心情
    开心
    2018-7-28 15:55
  • 签到天数: 204 天

    [LV.7]常住居民III

    发表于 2018-3-11 15:27:40 | 显示全部楼层
    论坛不能没有像楼主这样的人才啊!
    回复 支持 反对

    使用道具 举报

  • TA的每日心情
    奋斗
    3 小时前
  • 签到天数: 86 天

    [LV.6]常住居民II

    发表于 2018-3-29 17:31:00 | 显示全部楼层
    ]星球大战8:最后的绝地武士 Star.Wars.The.Last.Jedi.2017.1080p.BluRay.x264 ... [修改]
    回复 支持 反对

    使用道具 举报

  • TA的每日心情
    奋斗
    3 小时前
  • 签到天数: 86 天

    [LV.6]常住居民II

    发表于 2018-3-29 17:33:25 | 显示全部楼层
    星球大战8:最后的绝地武士 Star.Wars.The.Last.Jedi.2017.1080p.BluRay.x264 ... [修改]
    回复 支持 反对

    使用道具 举报

    您需要登录后才可以回帖 登录 | 立即注册

    本版积分规则

    Archiver|手机版|小黑屋|时代影视论坛 ( 宁ICP备16002180号-4 )

    GMT+8, 2018-9-26 12:26 , Processed in 0.177465 second(s), 29 queries , Gzip On.

    Powered by 时代影视 X3.2

    © 2001-2013 Comsenz Inc.

    快速回复 返回顶部 返回列表