时代影视论坛(NowYS)

 找回密码
 立即注册
搜索
查看: 2085|回复: 0

[BT下载]Chiefs.1968.720p.BluRay.x264-BiPOLAR 635MB

[复制链接]

该用户从未签到

发表于 2018-3-12 19:29:49 | 显示全部楼层 |阅读模式
台湾UU

马上注册,结交更多好友,享用更多功能,让你轻松玩转社区。

您需要 登录 才可以下载或查看,没有帐号?立即注册

x
[更 早] [欧美] [纪录] [BD-720P][BT下载]Chiefs.1968.720p.BluRay.x264-BiPOLAR 635MB



-->

Chiefs.1968.720p.BluRay.x264-BiPOLAR

Chiefs.1968.720p.BluRay.x264-BiPOLAR

◎译  名 
◎片  名 Chiefs
◎年  代 1968
◎产  地 美国
◎类  别 纪录片/短片
◎语  言 英语
◎上映日期 1971-08-09(美国)
◎IMDb评分  7.5/10 from 14 users
◎IMDb链接  http://www.imdb.com/title/tt0483979/
◎BT之家整理 http://www.btbtt.co
◎片  长 18分钟
◎导  演 里查德·利科克 Richard Leacock / Noel E. Parmentel Jr.


◎简  介


  收录在CC《蒙特利流行音乐节 Monterey Pop (1968)》蓝光花絮中


Video
ID                                       : 1
Format                                   : AVC
Format/Info                              : Advanced Video Codec
Format profile                           : High@L4.1
Format settings                          : CABAC / 5 Ref Frames
Format settings, CABAC                   : Yes
Format settings, RefFrames               : 5 frames
Codec ID                                 : V_MPEG4/ISO/AVC
Duration                                 : 19 min 52 s
Bit rate                                 : 4 277 kb/s
Width                                    : 960 pixels
Height                                   : 720 pixels
Display aspect ratio                     : 4:3
Frame rate mode                          : Constant
Frame rate                               : 23.976 (24000/1001) FPS
Color space                              : YUV
Chroma subsampling                       : 4:2:0
Bit depth                                : 8 bits
Scan type                                : Progressive
Bits/(Pixel*Frame)                       : 0.258
Stream size                              : 608 MiB (96%)
Writing library                          : x264 core 155 r2901 7d0ff22
Encoding settings                        : cabac=1 / ref=5 / deblock=1:-3:-3 / analyse=0x3:0x133 / me=umh / subme=9 / psy=1 / psy_rd=1.00:0.00 / mixed_ref=1 / me_range=16 / chroma_me=1 / trellis=2 / 8x8dct=1 / cqm=0 / deadzone=21,11 / fast_pskip=0 / chroma_qp_offset=-2 / threads=22 / lookahead_threads=1 / sliced_threads=0 / nr=0 / decimate=1 / interlaced=0 / bluray_compat=0 / constrained_intra=0 / bframes=3 / b_pyramid=2 / b_adapt=1 / b_bias=0 / direct=3 / weightb=1 / open_gop=0 / weightp=2 / keyint=240 / keyint_min=24 / scenecut=40 / intra_refresh=0 / rc_lookahead=50 / rc=2pass / mbtree=1 / bitrate=4277 / ratetol=1.0 / qcomp=0.60 / qpmin=0 / qpmax=69 / qpstep=4 / cplxblur=20.0 / qblur=0.5 / ip_ratio=1.40 / aq=1:1.00
Language                                 : English
Default                                  : Yes
Forced                                   : No

Audio
ID                                       : 2
Format                                   : AC-3
Format/Info                              : Audio Coding 3
Format settings, Endianness              : Big
Codec ID                                 : A_AC3
Duration                                 : 19 min 52 s
Bit rate mode                            : Constant
Bit rate                                 : 192 kb/s
Channel(s)                               : 1 channel
Channel positions                        : Front: C
Sampling rate                            : 48.0 kHz
Frame rate                               : 31.250 FPS (1536 SPF)
Bit depth                                : 16 bits
Compression mode                         : Lossy
Stream size                              : 27.3 MiB (4%)
Language                                 : English
Service kind                             : Complete Main
Default                                  : Yes
Forced                                   : No


e9d7274eb05812348c05f93470a0a6a4.jpg



257ccc9605c4b19188cf8ccddddb2b51.torrent (50.2 KB, 下载次数: 5)
回复

使用道具 举报

您需要登录后才可以回帖 登录 | 立即注册

本版积分规则

Archiver|手机版|小黑屋|时代影视论坛(NowYS小组) ( 宁ICP备16002180号-4 )

GMT+8, 2018-6-22 03:46 , Processed in 0.154786 second(s), 30 queries , Gzip On.

Powered by 时代影视 X3.2

© 2001-2013 Comsenz Inc.

快速回复 返回顶部 返回列表