时代影视论坛(NowYS)

 找回密码
 立即注册
搜索
查看: 2096|回复: 4

[1080p] [BT下载]重振雄风 Stealing.Home.1988.1080p.AMZN.WEBRip.DD2.0.x264-alfaHD 10GB

[复制链接]

该用户从未签到

发表于 2018-3-26 02:36:51 | 显示全部楼层 |阅读模式
台湾UU

马上注册,结交更多好友,享用更多功能,让你轻松玩转社区。

您需要 登录 才可以下载或查看,没有帐号?立即注册

x
[更 早] [欧美] [剧情] [WEB-1080P][BT下载]重振雄风 Stealing.Home.1988.1080p.AMZN.WEBRip.DD2.0.x264-alfaHD 10GB



-->

Stealing.Home.1988.1080p.AMZN.WEBRip.DD2.0.x264-alfaHD

Stealing.Home.1988.1080p.AMZN.WEBRip.DD2.0.x264-alfaHD

◎译  名 重振雄风/曾几何时
◎片  名 Stealing Home
◎年  代 1988
◎产  地 美国
◎类  别 剧情
◎语  言 英语
◎上映日期 1988-08-26
◎IMDb评分  6.8/10 from 3,673 users
◎IMDb链接  http://www.imdb.com/title/tt0096171/
◎豆瓣评分 6.8/10 from 149 users
◎豆瓣链接 https://movie.douban.com/subject/1293612/
◎BT之家整理 http://www.btbtt.me/
◎片  长 98 分钟
◎导  演 Steven Kampmann / William Porter
◎主  演 朱迪·福斯特
      马克·哈蒙
      乔纳森·斯利文曼


◎简  介


  比利怀特自小热衷棒球,在球场上表现优异,并得到邻居大姊凯蒂的鼓励,誓以棒球为终身的事业,凯蒂的关爱,使她与比利之间建立起情同姊弟又如知己的友谊。
  比利因一次球赛失利而灰心丧志,遂放弃棒球球往大城市谋生,并与一女侍同居,过着混混噩噩的日子,某日接获母亲来电得知凯蒂因意志消 沉自杀,遗书中指名骨灰由比利负责处理,比利束装返乡,见得老友艾普比再度重返球场,并将凯蒂骨灰下葬,然而旧日一切早已不堪回首......


Video
ID                                       : 1
Format                                   : AVC
Format/Info                              : Advanced Video Codec
Format profile                           : High@L4
Format settings                          : CABAC / 4 Ref Frames
Format settings, CABAC                   : Yes
Format settings, ReFrames                : 4 frames
Codec ID                                 : V_MPEG4/ISO/AVC
Duration                                 : 1 h 37 min
Bit rate mode                            : Variable
Bit rate                                 : 14.4 Mb/s
Maximum bit rate                         : 15.0 Mb/s
Width                                    : 1 920 pixels
Height                                   : 1 080 pixels
Display aspect ratio                     : 16:9
Frame rate mode                          : Constant
Frame rate                               : 23.976 (24000/1001) FPS
Color space                              : YUV
Chroma subsampling                       : 4:2:0
Bit depth                                : 8 bits
Scan type                                : Progressive
Bits/(Pixel*Frame)                       : 0.289
Stream size                              : 9.84 GiB (98%)
Writing library                          : x264 core 148 r2623 d5b2374
Encoding settings                        : cabac=1 / ref=4 / deblock=1:-1:-1 / analyse=0x3:0x133 / me=umh / subme=9 / psy=1 / psy_rd=1.00:0.15 / mixed_ref=1 / me_range=24 / chroma_me=1 / trellis=2 / 8x8dct=1 / cqm=0 / deadzone=21,11 / fast_pskip=1 / chroma_qp_offset=-3 / threads=34 / lookahead_threads=5 / sliced_threads=0 / nr=150 / decimate=1 / interlaced=0 / bluray_compat=0 / constrained_intra=0 / bframes=8 / b_pyramid=2 / b_adapt=2 / b_bias=0 / direct=3 / weightb=1 / open_gop=0 / weightp=2 / keyint=120 / keyint_min=61 / scenecut=0 / intra_refresh=0 / rc_lookahead=120 / rc=crf / mbtree=1 / crf=18.0 / qcomp=0.60 / qpmin=0 / qpmax=69 / qpstep=4 / vbv_maxrate=15000 / vbv_bufsize=31250 / crf_max=0.0 / nal_hrd=vbr / filler=0 / ip_ratio=1.40 / aq=3:1.00
Default                                  : Yes
Forced                                   : No
Color range                              : Limited
Color primaries                          : BT.709
Transfer characteristics                 : BT.709
Matrix coefficients                      : BT.709

Audio
ID                                       : 2
Format                                   : E-AC-3
Format/Info                              : Enhanced Audio Coding 3
Codec ID                                 : A_EAC3
Duration                                 : 1 h 37 min
Bit rate mode                            : Constant
Bit rate                                 : 224 kb/s
Channel(s)                               : 2 channels
Channel positions                        : Front: L R
Sampling rate                            : 48.0 kHz
Frame rate                               : 187.500 FPS (256 SPF)
Compression mode                         : Lossy
Stream size                              : 157 MiB (2%)
Language                                 : English
Service kind                             : Complete Main
Default                                  : Yes
Forced                                   : No

Text #1
ID                                       : 3
Format                                   : UTF-8
Codec ID                                 : S_TEXT/UTF8
Codec ID/Info                            : UTF-8 Plain Text
Duration                                 : 1 h 37 min
Bit rate                                 : 48 b/s
Count of elements                        : 1497
Stream size                              : 34.9 KiB (0%)
Language                                 : English
Default                                  : No
Forced                                   : No

Text #2
ID                                       : 4
Format                                   : UTF-8
Codec ID                                 : S_TEXT/UTF8
Codec ID/Info                            : UTF-8 Plain Text
Duration                                 : 1 h 37 min
Bit rate                                 : 49 b/s
Count of elements                        : 1518
Stream size                              : 35.2 KiB (0%)
Title                                    : SDH
Language                                 : English
Default                                  : No
Forced                                   : No



91cdb4ea2ef8e1e995f8ac452312dfaa.jpg
29edbf1621abd837a80741270c93b388.jpg



5d5b0c9c4594a865c191fb9f5c7dde9e.torrent (100.51 KB, 下载次数: 15)
回复

使用道具 举报

  • TA的每日心情
    开心
    8 小时前
  • 签到天数: 294 天

    [LV.8]以坛为家I

    发表于 2018-3-26 08:57:59 | 显示全部楼层
    每天都来时代影视论坛看看有什么电影!
    回复 支持 反对

    使用道具 举报

  • TA的每日心情
    奋斗
    前天 11:04
  • 签到天数: 43 天

    [LV.5]常住居民I

    发表于 2018-3-26 17:08:52 | 显示全部楼层
    每天都来时代影视论坛看看有什么电影!
    回复 支持 反对

    使用道具 举报

  • TA的每日心情
    无聊
    昨天 21:47
  • 签到天数: 61 天

    [LV.6]常住居民II

    发表于 2018-3-26 20:44:12 | 显示全部楼层
    原来是朱迪福斯特主演的,在美国女演员中挺崇拜她的  谢谢
    回复 支持 反对

    使用道具 举报

  • TA的每日心情
    无聊
    昨天 21:47
  • 签到天数: 61 天

    [LV.6]常住居民II

    发表于 2018-3-26 20:45:18 | 显示全部楼层
    当年引发刺杀美国总统里根的电影《出租汽车司机》就是朱迪福斯特主演的。
    回复 支持 反对

    使用道具 举报

    您需要登录后才可以回帖 登录 | 立即注册

    本版积分规则

    Archiver|手机版|小黑屋|时代影视论坛(NowYS小组) ( 宁ICP备16002180号-4 )

    GMT+8, 2018-4-25 16:32 , Processed in 0.239945 second(s), 29 queries , Gzip On.

    Powered by 时代影视 X3.2

    © 2001-2013 Comsenz Inc.

    快速回复 返回顶部 返回列表