时代影视论坛(NowYS小组)

 找回密码
 立即注册
搜索
查看: 2575|回复: 6

[BT下载]三级:史上最伟大的成人电影 2015.720p.AMZN.WEBRip.DD2.0.x264-Antifa 2.4GB

[复制链接]

该用户从未签到

发表于 2018-4-3 03:07:57 | 显示全部楼层 |阅读模式
台湾UU

马上注册,结交更多好友,享用更多功能,让你轻松玩转社区。

您需要 登录 才可以下载或查看,没有帐号?立即注册

x
[2015] [欧美] [纪录] [WEB-720P][BT下载]三级:史上最伟大的成人电影 2015.720p.AMZN.WEBRip.DD2.0.x264-Antifa 2.4GB



-->

X-Rated.The.Greatest.Adult.Movies.of.All.Time.2015.720p.AMZN.WEBRip.DD2.0.x264-Antifa

X-Rated.The.Greatest.Adult.Movies.of.All.Time.2015.720p.AMZN.WEBRip.DD2.0.x264-Antifa

◎译  名 三级:史上最伟大的成人电影
◎片  名 X-Rated: The Greatest Adult Movies of All Time
◎年  代 2015
◎产  地 美国
◎类  别 纪录片/情色
◎语  言 英语
◎上映日期 2015-02-06
◎IMDb评分  5.8/10 from 403 users
◎IMDb链接  http://www.imdb.com/title/tt4461838/
◎豆瓣评分 6.7/10 from 47 users
◎豆瓣链接 https://movie.douban.com/subject/26328646/
◎BT之家整理 http://www.btbtt.me/
◎片  长 95分钟
◎主  演 Chanel Preston


◎简  介


  A look at a plethora of pornographic films ranging from the 1970s to the 2010s and a commentary about their lasting impacts on the adult industry and the world.


Video
ID                                       : 1
Format                                   : AVC
Format/Info                              : Advanced Video Codec
Format profile                           : High@L3.1
Format settings                          : CABAC / 5 Ref Frames
Format settings, CABAC                   : Yes
Format settings, ReFrames                : 5 frames
Codec ID                                 : V_MPEG4/ISO/AVC
Duration                                 : 1 h 34 min
Bit rate mode                            : Variable
Bit rate                                 : 3 504 kb/s
Maximum bit rate                         : 4 500 kb/s
Width                                    : 1 280 pixels
Height                                   : 720 pixels
Display aspect ratio                     : 16:9
Frame rate mode                          : Constant
Frame rate                               : 23.976 (24000/1001) FPS
Color space                              : YUV
Chroma subsampling                       : 4:2:0
Bit depth                                : 8 bits
Scan type                                : Progressive
Bits/(Pixel*Frame)                       : 0.159
Stream size                              : 2.32 GiB (94%)
Default                                  : Yes
Forced                                   : No
Color range                              : Limited
Color primaries                          : BT.709
Transfer characteristics                 : BT.709
Matrix coefficients                      : BT.709

Audio
ID                                       : 2
Format                                   : E-AC-3
Format/Info                              : Enhanced Audio Coding 3
Codec ID                                 : A_EAC3
Duration                                 : 1 h 34 min
Bit rate mode                            : Constant
Bit rate                                 : 224 kb/s
Channel(s)                               : 2 channels
Channel positions                        : Front: L R
Sampling rate                            : 48.0 kHz
Frame rate                               : 187.500 FPS (256 SPF)
Compression mode                         : Lossy
Stream size                              : 152 MiB (6%)
Language                                 : English
Service kind                             : Complete Main
Default                                  : Yes
Forced                                   : No

Text #1
ID                                       : 3
Format                                   : UTF-8
Codec ID                                 : S_TEXT/UTF8
Codec ID/Info                            : UTF-8 Plain Text
Duration                                 : 1 h 34 min
Bit rate                                 : 107 b/s
Count of elements                        : 3061
Stream size                              : 74.0 KiB (0%)
Language                                 : English
Default                                  : No
Forced                                   : No

Text #2
ID                                       : 4
Format                                   : UTF-8
Codec ID                                 : S_TEXT/UTF8
Codec ID/Info                            : UTF-8 Plain Text
Duration                                 : 1 h 34 min
Bit rate                                 : 107 b/s
Count of elements                        : 3074
Stream size                              : 74.3 KiB (0%)
Title                                    : SDH
Language                                 : English
Default                                  : No
Forced                                   : No


880f6b35c4fac3ae2162b0d42da748df.jpg
dc8e198001ad7a745724a020c08c69e3.jpg



98b9c9c645aa5c6265cda45915f69f69.torrent (49.91 KB, 下载次数: 88)
回复

使用道具 举报

  • TA的每日心情
    开心
    2018-9-2 08:14
  • 签到天数: 130 天

    [LV.7]常住居民III

    发表于 2018-4-3 07:59:39 | 显示全部楼层
    好电影,一起欣赏
    回复 支持 反对

    使用道具 举报

  • TA的每日心情
    开心
    昨天 09:28
  • 签到天数: 438 天

    [LV.9]以坛为家II

    发表于 2018-4-3 10:04:08 | 显示全部楼层
    每天都来时代影视论坛看看有什么电影!
    回复 支持 反对

    使用道具 举报

  • TA的每日心情
    慵懒
    昨天 09:28
  • 签到天数: 347 天

    [LV.8]以坛为家I

    发表于 2018-4-3 13:28:29 | 显示全部楼层
    楼主分享的高清电影太好了!
    回复 支持 反对

    使用道具 举报

  • TA的每日心情
    开心
    2018-8-7 14:29
  • 签到天数: 108 天

    [LV.6]常住居民II

    发表于 2018-4-10 03:42:24 | 显示全部楼层

    好电影,一起欣赏
    回复 支持 反对

    使用道具 举报

  • TA的每日心情
    奋斗
    2018-4-21 11:19
  • 签到天数: 2 天

    [LV.1]初来乍到

    发表于 2018-4-20 11:18:41 | 显示全部楼层
    楼主分享的高清电影太好了!
    回复 支持 反对

    使用道具 举报

  • TA的每日心情
    开心
    2018-5-23 12:03
  • 签到天数: 5 天

    [LV.2]偶尔看看I

    发表于 2018-5-21 22:59:37 | 显示全部楼层
    谢谢楼主分享
    回复 支持 反对

    使用道具 举报

    您需要登录后才可以回帖 登录 | 立即注册

    本版积分规则

    Archiver|手机版|小黑屋|时代影视论坛 ( 宁ICP备16002180号-4 )

    GMT+8, 2018-9-20 01:23 , Processed in 0.138165 second(s), 29 queries , Gzip On.

    Powered by 时代影视 X3.2

    © 2001-2013 Comsenz Inc.

    快速回复 返回顶部 返回列表