时代影视论坛(NowYS小组)

 找回密码
 立即注册
搜索
查看: 2269|回复: 2

[BT下载]超越边缘 Beyond.the.Edge.2018.1080p.BluRay.x264.DTS-FGT 9.93GB

[复制链接]

该用户从未签到

发表于 2018-4-10 15:07:11 | 显示全部楼层 |阅读模式
台湾UU

马上注册,结交更多好友,享用更多功能,让你轻松玩转社区。

您需要 登录 才可以下载或查看,没有帐号?立即注册

x
[2018] [欧美] [奇幻] [BD-1080P][BT下载]超越边缘 Beyond.the.Edge.2018.1080p.BluRay.x264.DTS-FGT 9.93GB



-->

Beyond.the.Edge.2018.1080p.BluRay.x264.DTS-FGT

Beyond.the.Edge.2018.1080p.BluRay.x264.DTS-FGT

◎译  名 超越边缘
◎片  名 Beyond the Edge
◎年  代 2017
◎产  地 俄罗斯Russia
◎类  别 动作/奇幻/冒险
◎语  言 俄语Russian
◎上映日期 2018-03-01(俄罗斯Russia)
◎IMDb评分  4.7/10 from 158 users
◎IMDb链接  http://www.imdb.com/title/tt5629524/
◎BT之家整理 http://www.btbtt.co
◎片  长 101分钟
◎导  演 Aleksandr Boguslavskiy / Francesco Cinquemani
◎主  演 安东尼奥·班德拉斯 Antonio Banderas
      米洛斯·比柯维奇 Milos Bikovic
      Lyubov Aksyonova


◎简  介


  Contemporary Moscow. A talented gambler gathers a team of people with superpowers to win big at a casino. But at the game he finds himself up against a much strongermystical rival and ends up in a deadlock putting in danger himself and his team that he has grown to love. To save his friends and his girlfriend the lead characterwill have to go above and beyond.


Video
ID                                       : 1
Format                                   : AVC
Format/Info                              : Advanced Video Codec
Format profile                           : High@L4.1
Format settings                          : CABAC / 4 Ref Frames
Format settings, CABAC                   : Yes
Format settings, ReFrames                : 4 frames
Codec ID                                 : V_MPEG4/ISO/AVC
Duration                                 : 1 h 50 min
Bit rate                                 : 11.5 Mb/s
Width                                    : 1 920 pixels
Height                                   : 804 pixels
Display aspect ratio                     : 2.40:1
Frame rate mode                          : Constant
Frame rate                               : 23.976 (24000/1001) FPS
Color space                              : YUV
Chroma subsampling                       : 4:2:0
Bit depth                                : 8 bits
Scan type                                : Progressive
Bits/(Pixel*Frame)                       : 0.311
Stream size                              : 8.77 GiB (88%)
Title                                    : Beyond.the.Edge.2018.1080p.BluRay.x264.DTS-FGT
Writing library                          : x264 core 148 r2795M aaa9aa8
Encoding settings                        : cabac=1 / ref=4 / deblock=1:-2:-2 / analyse=0x3:0x113 / me=umh / subme=9 / psy=1 / psy_rd=1.00:0.15 / mixed_ref=1 / me_range=16 / chroma_me=1 / trellis=2 / 8x8dct=1 / cqm=0 / deadzone=21,11 / fast_pskip=1 / chroma_qp_offset=-3 / threads=24 / lookahead_threads=3 / sliced_threads=0 / nr=0 / decimate=1 / interlaced=0 / bluray_compat=0 / constrained_intra=0 / bframes=3 / b_pyramid=2 / b_adapt=2 / b_bias=0 / direct=3 / weightb=1 / open_gop=0 / weightp=2 / keyint=250 / keyint_min=25 / scenecut=40 / intra_refresh=0 / rc_lookahead=50 / rc=abr / mbtree=1 / bitrate=11500 / ratetol=1.0 / qcomp=0.60 / qpmin=0 / qpmax=69 / qpstep=4 / vbv_maxrate=31250 / vbv_bufsize=31250 / nal_hrd=none / filler=0 / ip_ratio=1.40 / aq=1:1.00
Language                                 : English
Default                                  : Yes
Forced                                   : No

Audio
ID                                       : 2
Format                                   : DTS
Format/Info                              : Digital Theater Systems
Codec ID                                 : A_DTS
Duration                                 : 1 h 50 min
Bit rate mode                            : Constant
Bit rate                                 : 1 509 kb/s
Channel(s)                               : 6 channels
Channel positions                        : Front: L C R, Side: L R, LFE
Sampling rate                            : 48.0 kHz
Frame rate                               : 93.750 FPS (512 SPF)
Bit depth                                : 24 bits
Compression mode                         : Lossy
Stream size                              : 1.16 GiB (12%)
Title                                    : Beyond.the.Edge.2018.1080p.BluRay.x264.DTS-FGT
Language                                 : English
Default                                  : No
Forced                                   : No

Menu
00:00:00.000                             : en:Chapter 01
00:07:34.287                             : en:Chapter 02
00:14:21.026                             : en:Chapter 03
00:21:59.693                             : en:Chapter 04
00:30:34.749                             : en:Chapter 05
00:37:31.165                             : en:Chapter 06
00:44:06.226                             : en:Chapter 07
00:50:27.190                             : en:Chapter 08
01:00:45.558                             : en:Chapter 09
01:10:29.016                             : en:Chapter 10
01:20:43.922                             : en:Chapter 11
01:29:29.864                             : en:Chapter 12
01:36:11.432                             : en:Chapter 13
01:46:20.165                             : en:Chapter 14



f004c6bd34447f6ddcc5873967b0c2f8.jpg




0f2106441f85722e6d058010aa86448b.torrent (99.87 KB, 下载次数: 3)
回复

使用道具 举报

  • TA的每日心情
    开心
    2018-11-28 21:17
  • 签到天数: 142 天

    [LV.7]常住居民III

    发表于 2018-4-11 12:56:49 | 显示全部楼层
    楼主分享的高清电影太好了!
    回复 支持 反对

    使用道具 举报

  • TA的每日心情
    开心
    5 天前
  • 签到天数: 87 天

    [LV.6]常住居民II

    发表于 2018-4-12 00:26:07 | 显示全部楼层
    每天都来时代影视论坛看看有什么电影!
    回复 支持 反对

    使用道具 举报

    您需要登录后才可以回帖 登录 | 立即注册

    本版积分规则

    Archiver|手机版|小黑屋|时代影视论坛 ( 宁ICP备16002180号-4 )

    GMT+8, 2018-12-12 07:38 , Processed in 1.116327 second(s), 25 queries , Gzip On.

    Powered by 时代影视 X3.2

    © 2001-2013 Comsenz Inc.

    快速回复 返回顶部 返回列表